<?xml version="1.0" standalone="no"?>
<!DOCTYPE svg PUBLIC "-//W3C//DTD SVG 1.1//EN" "http://www.w3.org/Graphics/SVG/1.1/DTD/svg11.dtd" >
<svg xmlns="http://www.w3.org/2000/svg">
<metadata></metadata>
<defs>
<font id="audiowideregular" horiz-adv-x="1338" >
<font-face units-per-em="2048" ascent="1638" descent="-410" />
<missing-glyph horiz-adv-x="666" />
<glyph unicode="&#xfb01;" horiz-adv-x="1580" d="M126 0v1186q0 67 17 120t45.5 93.5t65.5 69t77.5 46.5t81.5 26.5t78 8.5h588v-260h-586q-53 0 -80 -26.5t-27 -77.5v-1186h-260zM491 821v260h964l-2 -1081h-260l-2 821h-700zM1193 1290v256h260v-256h-260z" />
<glyph unicode="&#xfb02;" horiz-adv-x="1709" d="M126 0v1186q0 67 17 120t45.5 93.5t65.5 69t77.5 46.5t81.5 26.5t78 8.5h954l-2 -1185q0 -48 30 -76.5t75 -28.5h116v-260h-116q-56 0 -119.5 19t-118.5 62.5t-91 113t-36 170.5v925h-690q-53 0 -80 -26.5t-27 -77.5v-1186h-260zM491 821v260h444v-260h-444z" />
<glyph horiz-adv-x="2048" />
<glyph horiz-adv-x="2048" />
<glyph unicode="&#xd;" horiz-adv-x="666" />
<glyph unicode=" "  horiz-adv-x="666" />
<glyph unicode="&#x09;" horiz-adv-x="666" />
<glyph unicode="&#xa0;" horiz-adv-x="666" />
<glyph unicode="!" horiz-adv-x="533" d="M116 1434h301l-61 -1082h-179zM139 131q0 26 10 49.5t27.5 41t41 28t50.5 10.5q26 0 49.5 -10.5t41 -28t28 -41t10.5 -49.5q0 -27 -10.5 -50.5t-28 -41t-41 -27.5t-49.5 -10q-27 0 -50.5 10t-41 27.5t-27.5 41t-10 50.5z" />
<glyph unicode="&#x22;" horiz-adv-x="783" d="M96 1374h245l-41 -504h-166zM444 1374h245l-41 -504h-165z" />
<glyph unicode="#" horiz-adv-x="1494" d="M71 334l55 233h223l54 244h-219l55 233h215l74 330h243l-73 -330h250l73 330h244l-74 -330h230l-52 -233h-229l-53 -244h221l-51 -233h-221l-74 -334h-244l74 334h-250l-74 -334h-243l73 334h-227zM593 567h250l53 244h-250z" />
<glyph unicode="$" horiz-adv-x="1088" d="M75 717q0 86 15 151.5t39 114t53 81.5t57 54q32 25 63.5 38.5t57 20t43.5 8t24 1.5v248h234v-248h235v-234h-467q-6 0 -19.5 -4t-29.5 -16t-31.5 -35.5t-25.5 -62.5h573q25 0 46 -9t37 -25t25 -37.5t9 -45.5q0 -93 -17.5 -163.5t-46.5 -123t-66 -87.5t-76 -56t-77 -30 t-69 -9v-248h-234v248h-235v233h467q7 0 20.5 4t29.5 16.5t31 36t25 62.5h-573q-24 0 -45.5 9t-37 24.5t-25 37t-9.5 46.5z" />
<glyph unicode="%" horiz-adv-x="1774" d="M79 952q0 70 26.5 131.5t72.5 107.5t107.5 72.5t131.5 26.5t132 -26.5t108.5 -72.5t73 -107.5t26.5 -131.5q0 -71 -26.5 -132.5t-73 -108t-108.5 -73t-132 -26.5t-131.5 26.5t-107.5 73t-72.5 108t-26.5 132.5zM288 952q0 -27 10 -51t27.5 -42t41 -28t50.5 -10 q28 0 52 10t41.5 28t27.5 42t10 51t-10 50.5t-27.5 41t-41.5 27.5t-52 10q-27 0 -50.5 -10t-41 -27.5t-27.5 -41t-10 -50.5zM390 12l738 1291h239l-737 -1291h-240zM1017 365q0 70 26.5 131.5t73 108t108 73.5t132.5 27q70 0 131.5 -27t107.5 -73.5t72.5 -108t26.5 -131.5 t-26.5 -131.5t-72.5 -107.5t-107.5 -72.5t-131.5 -26.5q-71 0 -132.5 26.5t-108 72.5t-73 107.5t-26.5 131.5zM1226 365q0 -27 10.5 -50.5t28 -41t41.5 -27.5t51 -10t50.5 10t41 27.5t27.5 41t10 50.5t-10 50.5t-27.5 41.5t-41 28.5t-50.5 10.5t-51 -10.5t-41.5 -28.5 t-28 -41.5t-10.5 -50.5z" />
<glyph unicode="&#x26;" horiz-adv-x="1375" d="M124 360v121q0 79 22.5 136.5t59.5 99.5q-43 54 -62.5 117t-19.5 118q0 97 35 164t88 108.5t114.5 60t114.5 18.5h586v-234h-586q-27 0 -48.5 -8.5t-37 -24.5t-23.5 -37.5t-7 -46.5q0 -57 32 -87.5t84 -30.5h353v-234h-353q-55 0 -85.5 -34t-30.5 -85v-112 q0 -54 32.5 -87.5t83.5 -33.5h351q55 0 86.5 33t31.5 84q0 43 15 85t45 75.5t73.5 54t100.5 20.5h119v-235h-117l-2 -3q0 -64 -16.5 -115t-43.5 -89.5t-63 -66.5t-74.5 -45.5t-78 -25.5t-74.5 -8h-353q-93 0 -158.5 35t-108 87t-63 113t-22.5 113z" />
<glyph unicode="'" horiz-adv-x="435" d="M96 1374h245l-41 -504h-166z" />
<glyph unicode="(" horiz-adv-x="875" d="M77 717q0 98 21.5 193.5t56.5 186t80 173t92 154.5t92.5 130.5t81.5 100.5h360l-92 -92q-1 -1 -33.5 -35.5t-80.5 -94.5t-103.5 -141t-103.5 -174.5t-79.5 -196t-31.5 -204.5q0 -103 31.5 -205t79.5 -195.5t103.5 -174.5t103.5 -141t80.5 -94.5t33.5 -35.5l92 -92h-360 q-36 42 -81.5 100.5t-92.5 130.5t-92 154.5t-80 173t-56.5 186t-21.5 193.5z" />
<glyph unicode=")" horiz-adv-x="875" d="M14 -221l92 92q1 1 33 35.5t80 94.5t103.5 141t103 174.5t79 196t31.5 204.5t-31.5 204.5t-79 196t-103 174.5t-103.5 141t-80 94.5t-33 35.5l-92 92h360q36 -42 81 -100.5t92.5 -130.5t92.5 -154.5t80 -173t56.5 -186t21.5 -193.5t-21.5 -193.5t-56.5 -186t-80 -173 t-92.5 -154.5t-92.5 -130.5t-81 -100.5h-360z" />
<glyph unicode="*" horiz-adv-x="1111" d="M132 797l244 176l-244 176l121 170l199 -143v258h209v-256l196 141l123 -170l-245 -176l245 -176l-123 -170l-196 141v-256h-209v256l-199 -141z" />
<glyph unicode="+" horiz-adv-x="1104" d="M83 600v234h353v352h233v-352h352v-234h-352v-352h-233v352h-353z" />
<glyph unicode="," horiz-adv-x="461" d="M46 -184l93 503h245l-155 -503h-183z" />
<glyph unicode="-" horiz-adv-x="1170" d="M116 600v234h938v-234h-938z" />
<glyph unicode="." horiz-adv-x="420" d="M81 131q0 26 10 49.5t27.5 41t41 28t50.5 10.5q26 0 49.5 -10.5t41 -28t28 -41t10.5 -49.5q0 -27 -10.5 -50.5t-28 -41t-41 -27.5t-49.5 -10q-27 0 -50.5 10t-41 27.5t-27.5 41t-10 50.5z" />
<glyph unicode="/" horiz-adv-x="1350" d="M85 0l906 1434h278l-905 -1434h-279z" />
<glyph unicode="0" horiz-adv-x="1895" d="M114 600v234q0 132 49.5 242t132.5 189.5t191.5 124t226.5 44.5h469q78 0 153 -20t141.5 -57.5t122.5 -90.5t97 -120t63.5 -145.5t22.5 -166.5v-234q0 -88 -22.5 -166.5t-63.5 -145.5t-97 -120t-122.5 -90.5t-141.5 -57.5t-153 -20h-469q-79 0 -154 20t-141.5 57.5 t-122.5 90.5t-96.5 120t-63 145.5t-22.5 166.5zM374 600q0 -78 28 -141t75 -107.5t108.5 -68.5t128.5 -23h469q77 0 139.5 25.5t106.5 70.5t68 107.5t24 136.5v234q0 77 -28 140t-74.5 108t-107.5 69t-128 23h-469q-65 1 -126.5 -22.5t-109 -68t-76 -108t-28.5 -141.5v-234z M468.5 507.5q4.5 24.5 18.5 46t37 36.5l704 469q22 15 47.5 20t50 0t46 -19t36.5 -36t20 -47.5t0 -50t-19.5 -46t-37.5 -36.5l-702 -469q-17 -13 -35 -18t-37 -5q-32 0 -61 15t-47 43q-15 22 -20 47.5t-0.5 50z" />
<glyph unicode="1" horiz-adv-x="726" d="M71 1174v260h496v-1434h-261v1174h-235z" />
<glyph unicode="2" horiz-adv-x="1541" d="M106 0v481q0 37 8.5 78.5t26.5 82.5t46.5 78t69 65.5t93.5 45.5t120 17h586q53 0 78.5 26.5t25.5 77.5v115q0 53 -26 80t-76 27h-835v260h835q66 0 119 -17t93.5 -45.5t69.5 -65.5t47.5 -77.5t27 -82t8.5 -77.5v-117q0 -101 -36.5 -170.5t-91.5 -113t-118.5 -63 t-118.5 -19.5h-588q-32 0 -51 -9t-29.5 -24t-15.5 -34t-8 -38v-221h1057v-260h-1317z" />
<glyph unicode="3" horiz-adv-x="1473" d="M134 0v260h834q53 0 78.5 27t25.5 78v221h-938v262h938v219q0 107 -104 107h-834v260h834q67 0 120 -17t93.5 -45.5t69.5 -65.5t47 -77.5t26.5 -82t8.5 -77.5v-704q0 -101 -36.5 -170.5t-91 -113t-118.5 -62.5t-119 -19h-834z" />
<glyph unicode="4" horiz-adv-x="1584" d="M108 717v717h260v-586h795v586h262v-1434h-262v586h-924q-28 0 -52 10.5t-41.5 28t-27.5 41.5t-10 51z" />
<glyph unicode="5" horiz-adv-x="1537" d="M128 0v260h953q49 0 75.5 30t26.5 75v116q0 51 -26 78t-78 27h-586q-101 0 -170.5 36.5t-112.5 91.5t-62.5 119t-19.5 119v482h1198v-260h-938v-222q0 -52 27 -78t78 -26h588q54 0 118 -19.5t118.5 -63t91 -113.5t36.5 -171v-116q0 -37 -8.5 -78t-27 -81.5t-47 -77.5 t-69 -65.5t-93.5 -45.5t-119 -17h-953z" />
<glyph unicode="6" horiz-adv-x="1524" d="M122 481v471q0 88 22.5 158t59.5 123.5t86.5 91.5t102.5 62.5t107.5 35.5t102.5 11h652v-260h-652q-50 -4 -90.5 -21t-69.5 -45t-45 -67.5t-16 -88.5v-104h692q55 0 118.5 -19.5t118.5 -63t91.5 -113.5t36.5 -171v-116q0 -37 -8.5 -78t-27 -81.5t-47 -77.5t-69 -65.5 t-93.5 -45.5t-120 -17h-471q-48 0 -102.5 11t-107.5 35.5t-102.5 62t-86.5 91t-59.5 123.5t-22.5 158zM382 481q0 -51 17.5 -91.5t47.5 -69.5t70.5 -44.5t87.5 -15.5h469q50 0 76.5 30t26.5 75v116q0 51 -26 78t-79 27h-690v-105z" />
<glyph unicode="7" horiz-adv-x="1313" d="M67 1174v260h1069q35 0 65.5 -17.5t47.5 -48.5t17 -65.5t-17 -65.5l-721 -1237h-301l682 1174h-842z" />
<glyph unicode="8" horiz-adv-x="1528" d="M106 365v116q0 38 8.5 80t27 83t47.5 78t70 64q-18 42 -27 85t-9 81v117q0 100 36.5 170t91 113t118.5 62.5t118 19.5h352q67 0 120.5 -17t94 -45.5t69 -65.5t46.5 -77.5t26.5 -82t8.5 -77.5v-117q0 -98 -35 -170q32 -21 60 -49.5t49 -65.5t33 -83.5t12 -102.5v-116 q0 -37 -8.5 -78t-27 -81.5t-47.5 -77.5t-69.5 -65.5t-93.5 -45.5t-119 -17h-588q-54 0 -118 19t-118.5 62.5t-91 113t-36.5 170.5zM366 365q0 -48 29.5 -76.5t74.5 -28.5h588q50 0 76 30t26 75v116q0 50 -27.5 77.5t-74.5 27.5h-588q-48 0 -76 -30t-28 -75v-116zM485 952 q0 -52 26.5 -78t75.5 -26h352q53 0 79 26.5t26 77.5v115q0 53 -27 80t-78 27h-350q-53 0 -78.5 -27t-25.5 -78v-117z" />
<glyph unicode="9" horiz-adv-x="1524" d="M85 952v117q0 36 8.5 77.5t26.5 82t47 77.5t69.5 65.5t93.5 45.5t120 17h469q48 0 103 -11t108.5 -35.5t102.5 -62.5t86.5 -91.5t60 -123.5t22.5 -158v-471q0 -88 -22.5 -158t-60 -123.5t-86.5 -91t-102.5 -62t-108.5 -35.5t-103 -11h-649v260h649q49 4 89.5 20t70 43.5 t45.5 67t16 90.5v105h-690q-37 0 -78 8.5t-81.5 27t-77.5 47t-65.5 69.5t-45.5 94t-17 120zM345 952q0 -51 27 -77.5t80 -26.5h688v104q0 51 -17 92t-46.5 70t-70 44.5t-87.5 15.5h-469q-48 0 -76.5 -30t-28.5 -75v-117z" />
<glyph unicode=":" horiz-adv-x="498" d="M120 131q0 26 10 49.5t27.5 41t41 28t50.5 10.5q26 0 49.5 -10.5t41 -28t28 -41t10.5 -49.5q0 -27 -10.5 -50.5t-28 -41t-41 -27.5t-49.5 -10q-27 0 -50.5 10t-41 27.5t-27.5 41t-10 50.5zM120 950q0 26 10 49.5t27.5 41t41 28t50.5 10.5q26 0 49.5 -10.5t41 -28t28 -41 t10.5 -49.5q0 -27 -10.5 -50.5t-28 -41t-41 -27.5t-49.5 -10q-27 0 -50.5 10t-41 27.5t-27.5 41t-10 50.5z" />
<glyph unicode=";" horiz-adv-x="515" d="M61 -184l92 503h246l-156 -503h-182zM143 950q0 26 10 49.5t27.5 41t41 28t50.5 10.5q26 0 49.5 -10.5t41 -28t28 -41t10.5 -49.5q0 -27 -10.5 -50.5t-28 -41t-41 -27.5t-49.5 -10q-27 0 -50.5 10t-41 27.5t-27.5 41t-10 50.5z" />
<glyph unicode="&#x3c;" horiz-adv-x="1076" d="M71 719q0 28 11.5 53t31.5 43l489 438h371l-596 -534l596 -522h-375l-483 424q-45 37 -45 98z" />
<glyph unicode="=" horiz-adv-x="1211" d="M136 365v235h938v-235h-938zM136 834v235h938v-235h-938z" />
<glyph unicode="&#x3e;" horiz-adv-x="1076" d="M102 197l596 522l-596 534h370l490 -438q20 -18 31.5 -43t11.5 -53q0 -29 -12 -54.5t-33 -43.5l-484 -424h-374z" />
<glyph unicode="?" horiz-adv-x="1363" d="M79 1174v260h834q55 0 119 -19.5t118.5 -62.5t90.5 -113t36 -170v-117q0 -55 -19 -119t-62.5 -119t-113 -91.5t-169.5 -36.5h-221v-234h-261v365q0 27 10 50.5t27.5 41.5t41 28.5t50.5 10.5h353q51 0 77.5 26t26.5 78v117q0 51 -26 78t-78 27h-834zM431 131 q0 26 10.5 49.5t28 41t41 28t49.5 10.5q27 0 50.5 -10.5t41 -28t27.5 -41t10 -49.5q0 -27 -10 -50.5t-27.5 -41t-41 -27.5t-50.5 -10q-26 0 -49.5 10t-41 27.5t-28 41t-10.5 50.5z" />
<glyph unicode="@" horiz-adv-x="1354" d="M126 324v469q0 49 17 106t56 105.5t101 81t152 32.5h469q49 0 106 -17t106 -55.5t81.5 -100.5t32.5 -152v-353q0 -31 -11 -67t-36 -67t-65 -52t-97 -21h-469q-32 0 -68 11t-67 36t-51.5 64t-20.5 96q0 31 11 68t35.5 68t64 52t96.5 21h209v-182h-209q-3 0 -7 -0.5t-8 -3 t-7 -8t-3 -15.5q0 -14 8 -19t19 -5h241q8 0 13.5 5.5t5.5 20.5v234q0 9 -3.5 17.5t-25.5 8.5h-336v183h338q31 0 68 -11t68 -36t52 -65t21 -97v-236q0 -6 -1 -12t-1 -12h27q11 0 18.5 3t7.5 23v351q0 33 -11 59.5t-30 45t-45 28.5t-57 10h-469q-33 0 -59.5 -11t-45 -30.5 t-28.5 -45.5t-10 -56v-469q0 -32 11 -58.5t30.5 -45.5t45.5 -29.5t56 -10.5h117v-182h-117q-49 0 -106 17t-106 56t-81.5 101t-32.5 152z" />
<glyph unicode="A" horiz-adv-x="1709" d="M124 0v717q0 157 54 289t150 227t227 148t286 53h586q27 0 51 -10t42 -28t28 -42t10 -51v-1303h-260v352h-914v-352h-260zM384 612h914v562h-457q-12 0 -50.5 -3.5t-89 -17.5t-106.5 -43t-103 -80t-77.5 -127.5t-30.5 -185.5v-105z" />
<glyph unicode="B" horiz-adv-x="1657" d="M149 131v1172q0 27 10 51t27.5 42t41.5 28t52 10h870q48 0 103 -17t102.5 -54.5t79 -97.5t31.5 -147v-49q0 -69 -23 -148.5t-74 -150.5q44 -27 82.5 -65t67.5 -88t46 -113t17 -139v-50q0 -48 -16.5 -103t-54 -102t-97.5 -78.5t-147 -31.5h-987q-28 0 -52 10t-41.5 27.5 t-27.5 41.5t-10 52zM409 260h858q7 0 17 1t18 6t14 17t6 33v48q0 51 -16 91.5t-45 69.5t-70 44.5t-92 15.5h-586v262h469q51 0 92 15.5t70 44.5t44.5 69.5t15.5 91.5v49q0 56 -54 56h-741v-914z" />
<glyph unicode="C" horiz-adv-x="1530" d="M132 365v704q0 36 8.5 77.5t26.5 82t47 77.5t69.5 65.5t93.5 45.5t120 17h938v-260h-938q-51 0 -78 -27t-27 -80v-702q0 -50 27.5 -77.5t77.5 -27.5h938v-260h-938q-36 0 -77.5 8.5t-82 26.5t-77.5 46.5t-65.5 69t-45.5 94t-17 120.5z" />
<glyph unicode="D" horiz-adv-x="1686" d="M149 131v1172q0 27 10 51t27.5 42t41.5 28t52 10h702q129 0 239 -45t190 -124.5t125.5 -190t45.5 -240.5v-234q0 -131 -45.5 -241t-125.5 -189.5t-190 -124.5t-239 -45h-702q-28 0 -52 10t-41.5 27.5t-27.5 41.5t-10 52zM409 260h573q76 0 138.5 24.5t107.5 69t69.5 107 t24.5 139.5v234q0 76 -24.5 139t-69.5 107.5t-107.5 69t-138.5 24.5h-573v-914z" />
<glyph unicode="E" horiz-adv-x="1547" d="M145 365v938q0 27 10 51t27.5 42t41.5 28t52 10h1171v-260h-1042v-809q0 -51 27 -78t79 -27h936v-260h-938q-54 0 -118 19t-118.5 62.5t-91 113t-36.5 170.5zM509 586v262h821v-262h-821z" />
<glyph unicode="F" horiz-adv-x="1512" d="M151 0v1303q0 27 10 51t27.5 42t41.5 28t52 10h1171v-260h-1042v-1174h-260zM515 586v262h822v-262h-822z" />
<glyph unicode="G" horiz-adv-x="1686" d="M132 365v704q0 36 8.5 77.5t26.5 82t47 77.5t69.5 65.5t93.5 45.5t120 17h1057v-260h-1057q-51 0 -78 -27t-27 -80v-702q0 -50 27.5 -77.5t77.5 -27.5h809v326h-692v262h821q28 0 52 -10.5t41.5 -28.5t27.5 -41.5t10 -50.5v-586q0 -28 -10 -52t-27.5 -41.5t-41.5 -27.5 t-52 -10h-938q-36 0 -77.5 8.5t-82 26.5t-77.5 46.5t-65.5 69t-45.5 94t-17 120.5z" />
<glyph unicode="H" horiz-adv-x="1739" d="M153 0v1434h260v-586h913v586h260v-1434h-260v586h-913v-586h-260z" />
<glyph unicode="I" horiz-adv-x="566" d="M153 0v1434h260v-1434h-260z" />
<glyph unicode="J" horiz-adv-x="1504" d="M40 0v260h953q48 0 75 27.5t27 77.5v1069h262v-1069q0 -78 -27 -145t-75.5 -116t-115.5 -76.5t-146 -27.5h-953z" />
<glyph unicode="K" horiz-adv-x="1666" d="M153 0v1434h260v-1434h-260zM517 586v262h183l585 586h369l-737 -717l737 -717h-369l-585 586h-183z" />
<glyph unicode="L" horiz-adv-x="1508" d="M151 131v1303h260v-1174h1057v-260h-1186q-28 0 -52 10t-41.5 27.5t-27.5 41.5t-10 52z" />
<glyph unicode="M" horiz-adv-x="1971" d="M151 0v1323q0 45 26.5 80t69.5 47q16 4 32 4h10q21 -2 40.5 -9.5t35.5 -21t27 -32.5l592 -1029l592 1029q24 38 64 54q24 9 49 10q17 0 35 -5q42 -12 69 -47t27 -80v-1323h-262v854l-461 -811q-17 -31 -47.5 -47t-65.5 -16q-34 0 -63.5 16t-46.5 47l-463 811v-854h-260z " />
<glyph unicode="N" horiz-adv-x="1735" d="M151 0v1323q0 40 22.5 72.5t57.5 48.5q25 10 50 10q13 0 26 -2q39 -8 67 -37l950 -991v1010h260v-1323q0 -28 -10.5 -52t-28 -41.5t-41.5 -27.5t-51 -10q-24 0 -48.5 9t-43.5 29l-950 992v-1010h-260z" />
<glyph unicode="O" horiz-adv-x="1762" d="M106 580v274q0 130 45.5 240.5t125.5 190t190 124.5t239 45h352q129 0 238.5 -45t189.5 -124.5t125 -190t45 -240.5v-274q0 -131 -45 -241t-125 -190t-189.5 -124.5t-238.5 -44.5h-352q-129 0 -239 44.5t-190 124.5t-125.5 190t-45.5 241zM366 580q0 -77 24.5 -139.5 t69.5 -107t107.5 -69t138.5 -24.5h350q76 0 138.5 24.5t107.5 69t69.5 107t24.5 139.5v274q0 77 -24.5 139.5t-69 107t-107 69t-137.5 24.5h-352q-76 0 -138.5 -24.5t-107.5 -69t-69.5 -107t-24.5 -139.5v-274z" />
<glyph unicode="P" horiz-adv-x="1651" d="M147 0v1069q0 100 36.5 170t91 113t118.5 62.5t118 19.5h588q88 0 158 -22.5t123.5 -60t91 -86.5t62 -102.5t35.5 -108t11 -102.5v-118q0 -89 -22 -159t-59.5 -123.5t-86.5 -91.5t-102.5 -62t-108 -35t-102.5 -11h-588v260h588q50 4 90.5 20.5t69.5 44.5t45 67.5t16 89.5 v118q-5 49 -21 90t-43.5 70t-66.5 45.5t-90 16.5h-586q-52 0 -79 -27t-27 -78v-1069h-260z" />
<glyph unicode="Q" horiz-adv-x="1762" d="M106 580v274q0 130 45.5 240.5t125.5 190t190 124.5t239 45h352q129 0 238.5 -45t189.5 -124.5t125 -190t45 -240.5v-274q0 -100 -26.5 -188.5t-75 -160.5t-117 -126t-152.5 -85l304 -241h-377l-250 201h-256q-129 0 -239 44.5t-190 124.5t-125.5 190t-45.5 241zM366 580 q0 -77 24.5 -139.5t69.5 -107t107.5 -69t138.5 -24.5h350q76 0 138.5 24.5t107.5 69t69.5 107t24.5 139.5v274q0 77 -24.5 139.5t-69 107t-107 69t-137.5 24.5h-352q-76 0 -138.5 -24.5t-107.5 -69t-69.5 -107t-24.5 -139.5v-274z" />
<glyph unicode="R" horiz-adv-x="1694" d="M151 0v1303q0 27 10 51t27.5 42t41.5 28t52 10h987q87 0 147 -31.5t97.5 -79t54 -102.5t16.5 -103v-166q0 -89 -22 -159t-59.5 -123.5t-86.5 -91.5t-102.5 -62.5t-108 -35.5t-102.5 -11l543 -469h-402l-542 469h-187v260h588q49 4 89.5 20.5t70 44.5t45.5 67.5t16 90.5 v164q0 22 -5.5 33.5t-14 17t-18 6.5t-17.5 1h-858v-1174h-260z" />
<glyph unicode="S" horiz-adv-x="1594" d="M96 1010q0 117 41.5 197.5t104 131t135.5 73t136 22.5h885v-260h-885q-74 0 -115.5 -45t-41.5 -119q0 -75 41.5 -118.5t115.5 -43.5h598h2q42 -1 89 -11.5t93.5 -32.5t88.5 -55.5t74.5 -80.5t51.5 -108t19 -138t-19.5 -138.5t-51.5 -108.5t-75 -80t-89 -54t-93.5 -31 t-89.5 -10h-1003v260h1003q75 0 116.5 44t41.5 118q0 36 -11 66t-31.5 52t-50 34t-65.5 12h-598q-63 0 -136 22.5t-135.5 72.5t-104 131t-41.5 198z" />
<glyph unicode="T" horiz-adv-x="1487" d="M40 1174v260h1407v-260h-573v-1174h-260v1174h-574z" />
<glyph unicode="U" horiz-adv-x="1707" d="M122 717v717h260v-717q0 -110 30.5 -186t77.5 -127t103 -80t106.5 -43t89 -17.5t50.5 -3.5h457v1174h260v-1303q0 -28 -10 -52t-28 -41.5t-42 -27.5t-51 -10h-586q-83 0 -168 18t-164.5 55.5t-149.5 95.5t-122.5 137.5t-82.5 182t-30 228.5z" />
<glyph unicode="V" horiz-adv-x="1582" d="M-5 1434h291l504 -1033l506 1033h290l-679 -1383q-16 -32 -47.5 -51.5t-69.5 -19.5q-37 0 -68.5 19.5t-48.5 51.5z" />
<glyph unicode="W" horiz-adv-x="2053" d="M71 1434h264l172 -947l410 654q17 29 46.5 45t63.5 16t63 -16t48 -45l408 -654l172 947h264l-240 -1344q-8 -40 -36 -69t-68 -37q-12 -2 -25 -2q-29 0 -53 11q-36 16 -57 50l-476 782l-477 -782q-17 -29 -46.5 -45t-63.5 -16q-47 0 -83 30t-44 78z" />
<glyph unicode="X" horiz-adv-x="1612" d="M16 1434h352l438 -512l438 512h355l-617 -719l613 -715h-353l-436 508l-434 -508h-354l612 715z" />
<glyph unicode="Y" horiz-adv-x="1600" d="M83 954v480h260v-480q0 -51 16 -91.5t45 -69.5t70.5 -44.5t92.5 -15.5h469q37 6 76 15.5t71 32.5t53 64t21 109v480h260v-480q0 -89 -22.5 -159t-59.5 -123.5t-86.5 -91.5t-102.5 -62.5t-107.5 -35.5t-102.5 -11h-105v-471h-262v471h-104q-48 0 -102.5 11t-108 35.5 t-102.5 62.5t-86.5 91.5t-60 124t-22.5 158.5z" />
<glyph unicode="Z" horiz-adv-x="1461" d="M74 151q6 38 32 66l860 957h-881v260h1174q38 0 70.5 -21.5t48.5 -56.5q11 -25 11 -52q0 -12 -2 -22q-6 -38 -32 -65l-858 -957h879v-260h-1172q-38 0 -70.5 21.5t-48.5 56.5q-12 25 -12 52q-1 10 1 21z" />
<glyph unicode="[" horiz-adv-x="748" d="M134 -104v1640q0 27 11 50.5t29 41t42.5 27.5t51.5 10h409v-260h-278l-4 -1378h278v-263h-407q-26 0 -50 10.5t-43 28.5q-18 19 -28.5 43t-10.5 50z" />
<glyph unicode="\" horiz-adv-x="1350" d="M81 1434h279l905 -1434h-279z" />
<glyph unicode="]" horiz-adv-x="748" d="M71 1405v260h408q27 0 51.5 -10t43 -27.5t29.5 -41t11 -50.5v-1640q0 -26 -10.5 -50t-28.5 -43q-19 -18 -42.5 -28.5t-49.5 -10.5h-408v263h277l-3 1378h-278z" />
<glyph unicode="^" horiz-adv-x="881" d="M30 698v336l315 361q36 41 88 41q25 0 48.5 -10.5t40.5 -28.5l329 -369v-332l-418 465z" />
<glyph unicode="_" horiz-adv-x="1395" d="M126 -119h1143v-233h-1143v233z" />
<glyph unicode="`" horiz-adv-x="1141" d="M196 1346l110 243l482 -280l-70 -150z" />
<glyph unicode="a" d="M53 358q0 54 19 117t61.5 116.5t111 89.5t166.5 36h469v-248h-469q-53 0 -82 -32.5t-29 -80.5q0 -51 33.5 -79.5t79.5 -28.5h467q53 0 82 32t29 80v363q0 51 -31.5 81t-79.5 30h-571v247h571q54 0 116.5 -19t116 -61.5t89.5 -111t36 -166.5v-365q0 -54 -19 -116.5 t-61.5 -116t-111 -89.5t-166.5 -36h-469q-54 0 -116.5 19t-116 61.5t-89.5 111t-36 166.5z" />
<glyph unicode="b" horiz-adv-x="1414" d="M116 365v1173h260v-1173q0 -48 30 -76.5t75 -28.5h469q49 0 76.5 29t27.5 76v352q0 49 -29 76.5t-75 27.5h-469v260h469q37 0 78 -8.5t81.5 -26.5t77.5 -46.5t65 -69t45 -93.5t17 -120v-352q0 -37 -8.5 -78t-26.5 -81.5t-46.5 -77.5t-69 -65.5t-93.5 -45.5t-120 -17h-469 q-37 0 -78 8.5t-81.5 26.5t-77.5 46.5t-65.5 69t-45.5 94t-17 120.5z" />
<glyph unicode="c" horiz-adv-x="1262" d="M100 365v352q0 37 8.5 78t26.5 81.5t46.5 77.5t69 65t93.5 45t120 17h705v-260h-705q-51 0 -77.5 -26t-26.5 -80v-350q0 -51 27 -78t79 -27h703v-260h-705q-54 0 -118 19t-118.5 62.5t-91 113t-36.5 170.5z" />
<glyph unicode="d" horiz-adv-x="1434" d="M110 365v352q0 100 36.5 169.5t91 113t118.5 62.5t118 19h469v-260h-467q-52 0 -79 -26.5t-27 -77.5v-350q0 -53 26.5 -80t77.5 -27h469q53 0 79 27t26 78v1173h260v-1173q0 -67 -17 -120.5t-45 -94t-65 -69t-77.5 -46.5t-82 -26.5t-78.5 -8.5h-469q-67 0 -120 17 t-93.5 45.5t-69 65.5t-46.5 77.5t-26.5 82t-8.5 77.5z" />
<glyph unicode="e" d="M100 358v365q0 54 19 116.5t61.5 116t111 89.5t166.5 36h469q54 0 116.5 -19t116 -61.5t89.5 -111t36 -166.5q0 -54 -19 -116.5t-61.5 -116t-111 -89.5t-166.5 -36h-469v247h469q53 0 82 32.5t29 80.5q0 51 -32.5 80t-78.5 29h-469q-53 0 -82 -32.5t-29 -80.5v-363 q0 -52 32.5 -81t80.5 -29h467v-248h-469q-54 0 -116.5 19t-116 61.5t-89.5 111t-36 166.5z" />
<glyph unicode="f" horiz-adv-x="1127" d="M126 0v1186q0 67 17 120t45.5 93.5t65.5 69t77.5 46.5t81.5 26.5t78 8.5h588v-260h-586q-53 0 -80 -26.5t-27 -77.5v-1186h-260zM491 821v260h588v-260h-588z" />
<glyph unicode="g" horiz-adv-x="1414" d="M100 365v352q0 37 8.5 78t26.5 81.5t46.5 77.5t69 65t93.5 45t120 17h469q37 0 78.5 -8.5t82 -26.5t77.5 -46.5t65 -69t45 -93.5t17 -120v-821q0 -67 -17 -120.5t-45 -94t-65 -69t-77.5 -46.5t-82 -26.5t-78.5 -8.5h-469v260h469q53 0 79 27t26 78v821q0 51 -26 77.5 t-79 26.5h-469q-48 0 -76 -29.5t-28 -74.5v-352q0 -51 27 -78t79 -27h467v-260h-469q-37 0 -78 8.5t-81.5 26.5t-77.5 46.5t-65 69t-45 94t-17 120.5z" />
<glyph unicode="h" horiz-adv-x="1440" d="M126 0v1538h260v-1538h-260zM491 821v260h469q37 0 78 -8.5t81.5 -26.5t77.5 -46.5t65 -69t45 -93.5t17 -120v-717h-260v717q0 51 -26 77.5t-78 26.5h-469z" />
<glyph unicode="i" horiz-adv-x="513" d="M126 0v1081h260v-1081h-260zM126 1303v235h260v-235h-260z" />
<glyph unicode="j" horiz-adv-x="513" d="M-447 -209h469q52 0 78 27t26 78v1185h260v-1185q0 -67 -17 -120.5t-45 -94t-65 -69t-77.5 -46.5t-81.5 -26.5t-78 -8.5h-469v260zM126 1303v235h260v-235h-260z" />
<glyph unicode="k" horiz-adv-x="1416" d="M126 0v1538h260v-1538h-260zM452 606q2 28 14.5 52.5t34.5 41.5l475 383h416l-612 -493l612 -590h-375l-524 506q-41 37 -41 92v8z" />
<glyph unicode="l" horiz-adv-x="642" d="M116 365v1173h260v-1173q0 -48 30 -76.5t75 -28.5h116v-260h-116q-56 0 -119.5 19t-118.5 62.5t-91 113t-36 170.5z" />
<glyph unicode="m" horiz-adv-x="1789" d="M122 0v952q0 27 10 50.5t28 41t42 27.5t51 10h469q54 0 116 -19t118 -61v80h352q37 0 78 -8.5t81.5 -26.5t77.5 -46.5t65 -69t45 -93.5t17 -120v-717h-260v717q0 51 -25.5 77.5t-78.5 26.5h-234q13 -48 13 -104v-717h-260v717q0 51 -27 77.5t-80 26.5h-338v-821h-260z " />
<glyph unicode="n" horiz-adv-x="1426" d="M122 0v952q0 27 10 50.5t28 41t42 27.5t51 10h586q49 0 103.5 -11t108 -35.5t102 -62t86 -91t59.5 -123.5t22 -158v-600h-260v600q0 51 -17.5 91.5t-47.5 69.5t-70.5 44.5t-87.5 15.5h-455v-821h-260z" />
<glyph unicode="o" horiz-adv-x="1397" d="M100 365v352q0 100 36.5 169.5t91 113t118.5 62.5t118 19h469q100 0 170 -36t113 -90.5t62.5 -118.5t19.5 -119v-352q0 -67 -17 -120.5t-45 -94t-65 -69t-77.5 -46.5t-82 -26.5t-78.5 -8.5h-469q-54 0 -118 19t-118.5 62.5t-91 113t-36.5 170.5zM360 365q0 -51 27 -78 t79 -27h467q53 0 79 27t26 78v350q0 54 -27 80t-78 26h-467q-52 0 -79 -26.5t-27 -77.5v-352z" />
<glyph unicode="p" horiz-adv-x="1414" d="M116 -338v1055q0 67 17 120t45.5 93.5t65.5 69t77.5 46.5t82 26.5t77.5 8.5h469q67 0 120 -17t93.5 -45t69 -65t46.5 -77.5t26.5 -81.5t8.5 -78v-352q0 -67 -17 -120.5t-45 -94t-65 -69t-77.5 -46.5t-81.5 -26.5t-78 -8.5h-469v260h469q52 0 78 27t26 78v350 q0 54 -26.5 80t-77.5 26h-467q-53 0 -80 -26.5t-27 -77.5v-1055h-260z" />
<glyph unicode="q" horiz-adv-x="1414" d="M100 365v352q0 37 8.5 78t26.5 81.5t46.5 77.5t69 65t93.5 45t120 17h469q37 0 78.5 -8.5t82 -26.5t77.5 -46.5t65 -69t45 -93.5t17 -120v-1055h-260v1055q0 51 -26 77.5t-79 26.5h-469q-48 0 -76 -29.5t-28 -74.5v-352q0 -51 27 -78t79 -27h467v-260h-469q-54 0 -118 19 t-118.5 62.5t-91 113t-36.5 170.5z" />
<glyph unicode="r" horiz-adv-x="1117" d="M116 0v717q0 67 17 120t45.5 93.5t65.5 69t77.5 46.5t82 26.5t77.5 8.5h587v-260h-585q-53 0 -80 -26.5t-27 -77.5v-717h-260z" />
<glyph unicode="s" horiz-adv-x="1227" d="M85 768q0 87 31 146.5t78 96.5t102 53.5t103 16.5h639v-260h-637q-20 0 -31.5 -4.5t-17 -12t-6.5 -16t-1 -16.5q1 -16 6 -25t12.5 -13t17 -4.5t18.5 -0.5h403q100 0 170 -36t113 -90.5t62.5 -118.5t19.5 -119q0 -67 -17 -120.5t-45 -94t-65 -69t-77.5 -46.5t-82 -26.5 t-78.5 -8.5h-704v260h702q53 0 80 27t27 78q-5 104 -105 104h-403q-86 0 -146 30t-97.5 75t-54 97t-16.5 97z" />
<glyph unicode="t" horiz-adv-x="1154" d="M50 821v260h338v353h263v-353h454v-260h-454v-821h-263v821h-338z" />
<glyph unicode="u" horiz-adv-x="1426" d="M106 481v600h260v-600q0 -51 17.5 -91.5t47.5 -69.5t70.5 -44.5t87.5 -15.5h455v821h260v-950q0 -28 -10 -52t-27.5 -41.5t-41 -27.5t-50.5 -10h-588q-48 0 -102.5 11t-107.5 35.5t-102.5 62t-86.5 91t-59.5 123.5t-22.5 158z" />
<glyph unicode="v" horiz-adv-x="1383" d="M122 127v954h260v-813q95 0 182.5 41t165.5 108.5t144.5 153.5t118.5 176.5t88.5 177.5t54.5 156h276q-44 -137 -103 -270t-135.5 -253.5t-171 -223t-209 -177t-249 -117t-291.5 -42.5q-27 0 -51 10t-42 27.5t-28 41t-10 50.5z" />
<glyph unicode="w" horiz-adv-x="1870" d="M122 131v950h260v-616l518 579q28 28 66 36q12 2 25 2q26 0 51 -11q37 -15 58.5 -47.5t21.5 -71.5v-618q84 81 152 171t126.5 185.5t110 194t100.5 196.5h291q-62 -139 -134 -273.5t-150.5 -254.5t-160.5 -221.5t-162.5 -175t-157 -115t-144.5 -41.5q-28 0 -52 10 t-42 27.5t-28 41.5t-10 52v485l-516 -577q-20 -20 -43.5 -29.5t-48.5 -9.5q-27 0 -50.5 10t-41.5 27.5t-28.5 41.5t-10.5 52z" />
<glyph unicode="x" horiz-adv-x="1424" d="M7 0l525 573l-465 508h356l287 -313l289 313h358l-467 -510l526 -571h-358l-346 377l-346 -377h-359z" />
<glyph unicode="y" horiz-adv-x="1440" d="M116 365v716h260v-716q0 -51 27 -78t80 -27h467v-260h-469q-56 0 -119.5 19t-118.5 62.5t-91 113t-36 170.5zM481 -209h469q52 0 78 27t26 78v1185h260v-1185q0 -67 -17 -120.5t-45 -94t-65 -69t-77.5 -46.5t-81.5 -26.5t-78 -8.5h-469v260z" />
<glyph unicode="z" horiz-adv-x="1231" d="M78 156q8 38 36 67l598 598h-625v260h940q39 0 71.5 -21t47.5 -59q11 -25 11 -51q-1 -12 -3 -24q-8 -38 -34 -66l-601 -600h625v-260h-938q-40 0 -72.5 22.5t-48.5 57.5q-10 25 -10 50q1 13 3 26z" />
<glyph unicode="{" horiz-adv-x="869" d="M22 717q0 27 10 50.5t27.5 41t41 28t50.5 11.5q54 0 81 26.5t27 77.5v353q0 86 35 153t93 113t131.5 70t150.5 24h129v-260h-129q-25 0 -51.5 -5.5t-48.5 -17.5t-36 -31t-14 -46v-2v-351q0 -77 -22 -135.5t-57 -101.5q42 -54 59.5 -116t17.5 -116v-354q0 -35 18 -55.5 t43 -31t50 -13t39 -2.5h129v-263h-131q-41 0 -87.5 8.5t-92 27t-87 47.5t-73 70t-50 94t-18.5 120v350q0 53 -27.5 79t-76.5 26q-28 0 -52 10.5t-41.5 28t-27.5 41.5t-10 51z" />
<glyph unicode="|" horiz-adv-x="533" d="M136 -236v1905h261v-1905h-261z" />
<glyph unicode="}" horiz-adv-x="869" d="M71 1405v260h131q81 0 155 -25.5t130.5 -73t89.5 -114t33 -147.5q0 -7 1 -94.5t1 -258.5q0 -51 26 -77.5t80 -26.5q27 -1 50.5 -11.5t41 -28t27.5 -41t10 -50.5t-10 -51t-27.5 -41.5t-41 -28t-50.5 -10.5q-51 0 -78.5 -26t-27.5 -79l2 -350q0 -67 -19 -120t-51 -94 t-73.5 -70t-87 -47.5t-92 -27t-87.5 -8.5h-129l-2 263h131q13 0 38 2.5t49.5 13t42.5 31t18 55.5v354q0 54 18.5 116t58.5 116q-35 43 -57.5 101.5t-22.5 135.5v351v2q-5 28 -18.5 47t-33.5 31t-44.5 17t-50.5 5h-131z" />
<glyph unicode="~" horiz-adv-x="1297" d="M110 502v262q21 21 52 40t67 32.5t73.5 21.5t71.5 8q61 0 132.5 -17t145 -38t145.5 -38t136 -17q34 0 71 10t71.5 26.5t64 36.5t49.5 41v-264q-21 -21 -50 -39t-64 -31.5t-73.5 -21.5t-78.5 -8q-62 0 -132.5 17t-143.5 37t-145 37t-136 17q-35 0 -72 -10t-71.5 -26 t-64 -36t-48.5 -40z" />
<glyph unicode="&#xa1;" horiz-adv-x="511" d="M104 -408l61 1082h178l62 -1082h-301zM124 895q0 27 10.5 50.5t28 41t41 27.5t49.5 10q27 0 50.5 -10t41 -27.5t27.5 -41t10 -50.5q0 -26 -10 -49.5t-27.5 -41t-41 -28t-50.5 -10.5q-26 0 -49.5 10.5t-41 28t-28 41t-10.5 49.5z" />
<glyph unicode="&#xa2;" horiz-adv-x="1045" d="M100 600v234q0 53 18.5 114.5t60.5 114.5t109 88t164 35v248h233v-248h246v-234h-479q-56 0 -86.5 -33t-30.5 -85v-234q0 -54 32 -86.5t85 -32.5h479v-233h-246v-248h-233v248q-53 0 -114.5 18.5t-114.5 60.5t-88 109t-35 164z" />
<glyph unicode="&#xa3;" horiz-adv-x="1801" d="M75 596v233h338v242q0 55 19 118.5t62 118t112 90.5t169 36h480v-260h-480q-48 0 -76 -29t-28 -74v-242h338v-233h-338v-336h686q53 0 79 26.5t26 75.5v132h260v-132q0 -100 -36 -169t-90.5 -112t-118 -62t-118.5 -19h-817q-27 0 -50.5 10t-41 27.5t-27.5 41t-10 50.5 v467h-338z" />
<glyph unicode="&#xa4;" horiz-adv-x="898" d="M71 952l154 138l102 -105q28 12 57.5 19.5t61.5 7.5t63.5 -7.5t59.5 -21.5l106 107l152 -148l-113 -111q11 -26 17 -53.5t6 -56.5q0 -32 -7.5 -61.5t-19.5 -57.5l117 -115l-152 -143l-113 113q-53 -25 -116 -25q-31 0 -59 5t-54 16l-108 -109l-150 150l109 106 q-14 28 -20.5 58.5t-6.5 62.5q0 31 6 61t19 58zM337 721q0 -47 31 -78t78 -31q23 0 43 8.5t35 23t23.5 34.5t8.5 43t-8.5 43t-23.5 35t-35 23.5t-43 8.5t-43 -8.5t-34.5 -23.5t-23 -35t-8.5 -43z" />
<glyph unicode="&#xa5;" horiz-adv-x="1649" d="M112 946v488h260v-488q0 -51 17 -91.5t46.5 -69t70 -43.5t87.5 -15h465q49 2 89.5 18t70 44.5t45.5 68t16 88.5v488h258v-488q0 -88 -22 -157.5t-59 -123t-86 -91t-102 -61.5t-107.5 -35t-102.5 -11h-102v-105h336v-233h-336v-129h-260v129h-338v233h338v105h-105 q-48 0 -102 11t-107.5 35t-102 61.5t-86 91t-59.5 123t-22 157.5z" />
<glyph unicode="&#xa6;" horiz-adv-x="537" d="M139 -236v848h260v-848h-260zM139 821v848h260v-848h-260z" />
<glyph unicode="&#xa7;" horiz-adv-x="1649" d="M118 776q0 78 18 135t44 99q-28 46 -45 104.5t-17 130.5q0 77 19.5 138.5t51.5 108.5t75 80.5t89 55t93.5 31.5t89.5 10h885v-262h-885q-37 0 -66 -12.5t-49.5 -34t-31.5 -51.5t-11 -64q0 -36 11.5 -66t32.5 -52t50 -34t64 -12h600q42 -1 89 -11t93.5 -31.5t88.5 -55 t74.5 -80.5t51.5 -109t19 -139t-19 -134.5t-45 -100.5q29 -47 46.5 -104t17.5 -130q0 -77 -19.5 -138.5t-51.5 -108.5t-75 -80t-89 -54t-93.5 -31t-89.5 -10h-1004v263h1004q36 0 65 12t50 33.5t32 50.5t11 63q0 36 -12 66.5t-33 52.5t-50 34.5t-63 12.5h-598 q-42 0 -89.5 10t-93.5 31t-89 54.5t-75 80.5t-51.5 108.5t-19.5 139.5zM378 776q0 -37 11.5 -67t32.5 -51.5t50 -33.5t64 -12h600q34 -2 70.5 -8t74.5 -20q5 14 8 31t3 40q0 36 -12 66.5t-33 52.5t-50 34.5t-63 12.5h-598q-34 0 -71.5 6.5t-76.5 20.5q-5 -14 -7.5 -31.5 t-2.5 -40.5z" />
<glyph unicode="&#xa8;" horiz-adv-x="1141" d="M210 1315q0 26 10 49.5t27.5 41t41 28t50.5 10.5q26 0 49.5 -10.5t41 -28t28 -41t10.5 -49.5q0 -27 -10.5 -50.5t-28 -41t-41 -27.5t-49.5 -10q-27 0 -50.5 10t-41 27.5t-27.5 41t-10 50.5zM673 1315q0 26 10 49.5t27.5 41t41 28t50.5 10.5q26 0 49.5 -10.5t41 -28 t28 -41t10.5 -49.5q0 -27 -10.5 -50.5t-28 -41t-41 -27.5t-49.5 -10q-27 0 -50.5 10t-41 27.5t-27.5 41t-10 50.5z" />
<glyph unicode="&#xa9;" horiz-adv-x="1436" d="M124 623v188q0 89 22.5 157.5t60 119t85.5 84.5t98.5 54.5t99 29t87.5 8.5h282q39 0 88 -8.5t99.5 -29t98.5 -54.5t85 -84.5t59.5 -119t22.5 -157.5v-188q0 -90 -22.5 -158.5t-60 -118.5t-85 -84t-98 -54.5t-99.5 -29t-88 -8.5h-282q-39 0 -87.5 8.5t-99 29t-98.5 54.5 t-85.5 84t-60 118.5t-22.5 158.5zM280 623q0 -72 20 -122t50.5 -83t67 -51.5t70 -27.5t58.5 -11t33 -2h280q8 0 33 2t58 11.5t69 28t66.5 51.5t50.5 83t20 121v188q0 185 -145 258q-28 14 -55 21.5t-49 11.5q-26 4 -48 6h-282q-7 0 -32 -2t-58 -11t-69.5 -27.5t-67 -51.5 t-50.5 -83t-20 -122v-188zM417 582v280q0 25 9 55.5t29.5 56t53 43t80.5 17.5h375v-155h-375q-3 0 -5 -0.5t-4 -0.5q-2 -1 -3 -1q-2 -2 -3 -7.5t-1 -7.5v-280q0 -7 1 -9q0 -2 1 -2q2 -3 7 -4.5t7 -1.5h375v-155h-375q-25 0 -55 9.5t-56 30t-43.5 53t-17.5 79.5z" />
<glyph unicode="&#xaa;" horiz-adv-x="1234" d="M102 827q0 46 16.5 99.5t52.5 99.5t94 76.5t142 30.5h401v-209h-401q-29 0 -48 -9t-29.5 -23.5t-14.5 -32t-4 -34.5q0 -45 27 -70.5t69 -25.5h401q29 0 48 9t30.5 23t16 31.5t4.5 34.5v301q0 47 -28.5 72t-70.5 25h-504v209h504q46 0 100 -16.5t100 -52.5t76.5 -94.5 t30.5 -142.5v-301q0 -31 -7 -65t-22.5 -68t-39.5 -65t-58 -55t-78.5 -38t-101.5 -14h-401q-46 0 -99.5 16t-99 52t-76 94.5t-30.5 142.5z" />
<glyph unicode="&#xab;" horiz-adv-x="1426" d="M65 535q0 24 10 47.5t29 40.5l368 329h332l-465 -417l463 -404h-336l-360 315q-41 35 -41 89zM597 535q0 24 10.5 47.5t28.5 40.5l369 329h332l-465 -417l463 -404h-336l-361 315q-41 36 -41 89z" />
<glyph unicode="&#xac;" horiz-adv-x="1184" d="M106 600v234h938v-586h-234v352h-704z" />
<glyph unicode="&#xad;" horiz-adv-x="1170" d="M116 600v234h938v-234h-938z" />
<glyph unicode="&#xae;" horiz-adv-x="1436" d="M124 623v188q0 89 22.5 157.5t60 119t85.5 84.5t98.5 54.5t99 29t87.5 8.5h282q39 0 88 -8.5t99.5 -29t98.5 -54.5t85 -84.5t59.5 -119t22.5 -157.5v-188q0 -90 -22.5 -158.5t-60 -118.5t-85 -84t-98 -54.5t-99.5 -29t-88 -8.5h-282q-39 0 -87.5 8.5t-99 29t-98.5 54.5 t-85.5 84t-60 118.5t-22.5 158.5zM280 623q0 -72 20 -122t50.5 -83t67 -51.5t70 -27.5t58.5 -11t33 -2h280q8 0 32 1.5t57 10.5l-297 258h-27v158h194q62 0 62 61v64h-313v-439h-156v516q0 32 23 55t55 23h395q37 0 65 -13.5t47.5 -35t29.5 -48.5t10 -54v-68 q0 -48 -13.5 -84t-36 -61.5t-51 -41.5t-57.5 -24l211 -180q29 32 48 80.5t19 118.5v188q0 185 -145 258q-28 14 -55 21.5t-49 11.5q-26 4 -48 6h-282q-7 0 -32 -2t-58 -11t-69.5 -27.5t-67 -51.5t-50.5 -83t-20 -122v-188z" />
<glyph unicode="&#xaf;" horiz-adv-x="1141" d="M235 1200v236h672v-236h-672z" />
<glyph unicode="&#xb0;" horiz-adv-x="730" d="M75 1083q0 60 22.5 113t62 92.5t92 62.5t112.5 23t113 -23t92.5 -62.5t62.5 -92.5t23 -113t-23 -112.5t-62.5 -91.5t-92.5 -61.5t-113 -22.5t-112.5 22.5t-92 61.5t-62 91.5t-22.5 112.5zM255 1083q0 -46 31 -77t78 -31q23 0 43 8.5t35 23t23.5 34t8.5 42.5t-8.5 43.5 t-23.5 35.5t-35 23.5t-43 8.5q-47 0 -78 -32t-31 -79z" />
<glyph unicode="&#xb1;" horiz-adv-x="1190" d="M126 0v233h938v-233h-938zM126 600v234h353v229h233v-229h352v-234h-352v-229h-233v229h-353z" />
<glyph unicode="&#xb2;" horiz-adv-x="830" d="M108 621v233q0 34 12 67t35.5 59.5t58.5 43t80 16.5h242v56h-381v182h377q45 0 80 -16.5t58.5 -43t35.5 -59.5t12 -67v-48q0 -45 -16.5 -79.5t-43 -58.5t-59.5 -36t-67 -12h-242v-55h428v-182h-610z" />
<glyph unicode="&#xb3;" horiz-adv-x="791" d="M124 621v182h381v293h-381v182h377q45 0 80 -16.5t58.5 -43t35.5 -59.5t12 -67v-285q0 -45 -16.5 -80t-43 -58.5t-59.5 -35.5t-67 -12h-377zM124 858v182h502v-182h-502z" />
<glyph unicode="&#xb4;" horiz-adv-x="1141" d="M354 1309l481 280l110 -243l-522 -187z" />
<glyph unicode="&#xb5;" horiz-adv-x="1459" d="M145 -469v1550h260v-600q0 -67 21 -108t53 -64t71.5 -33.5t77.5 -15.5h455v821h260v-950q0 -28 -10 -52t-27.5 -41.5t-41 -27.5t-50.5 -10h-588q-51 0 -108 11.5t-113 39.5v-520h-260z" />
<glyph unicode="&#xb6;" horiz-adv-x="1932" d="M85 834v118q0 48 11 102.5t35.5 108t62.5 102.5t91.5 86.5t123.5 60t158 22.5h383q52 0 114.5 -19t116.5 -59v78h233q55 0 118.5 -19.5t118.5 -62.5t91.5 -113t36.5 -170v-1069h-260v1069q0 51 -27 78t-80 27h-110q12 -50 12 -105v-1069h-260v1069q0 51 -27 78t-79 27 h-381q-51 0 -90 -16.5t-67 -45.5t-44 -70t-21 -90v-118q0 -50 16 -89.5t45 -67.5t70 -44.5t91 -20.5h383v-260h-383q-48 0 -102.5 11t-108 35t-102.5 62t-86.5 91.5t-60 123.5t-22.5 159z" />
<glyph unicode="&#xb7;" horiz-adv-x="437" d="M89 719q0 26 10 49.5t27.5 41t41 28t50.5 10.5q26 0 49.5 -10.5t41 -28t28 -41t10.5 -49.5q0 -27 -10.5 -50.5t-28 -41t-41 -27.5t-49.5 -10q-27 0 -50.5 10t-41 27.5t-27.5 41t-10 50.5z" />
<glyph unicode="&#xb8;" horiz-adv-x="1033" d="M220 -254q41 -19 93 -32t108 -13q57 0 95 11.5t38 39.5q0 16 -12 26t-30 15.5t-38 7.5t-36 2q-23 0 -49 -3t-46 -9l86 227h156l-35 -88q29 0 65.5 -7t69 -26.5t54.5 -54.5t22 -92t-28.5 -96t-74 -63t-102 -34t-112.5 -10q-51 0 -85 2.5t-58.5 6t-43 7.5t-37.5 7v176z" />
<glyph unicode="&#xb9;" horiz-adv-x="490" d="M87 1096v182h277v-657h-182v475h-95z" />
<glyph unicode="&#xba;" horiz-adv-x="1250" d="M118 827v301q0 84 30.5 142.5t76 94.5t99 52.5t99.5 16.5h402q84 0 142.5 -30.5t95 -76.5t53 -99.5t16.5 -99.5v-301q0 -84 -30.5 -142.5t-76.5 -94.5t-100 -52t-100 -16h-402q-46 0 -99.5 16t-99 52t-76 94.5t-30.5 142.5zM327 827q0 -45 26.5 -71.5t69.5 -26.5h402 q17 0 34.5 4.5t31.5 15.5t23 30t9 48v301q0 16 -4.5 33t-15.5 31.5t-30 23.5t-48 9h-402q-16 0 -33 -4t-31 -15t-23 -30t-9 -48v-301z" />
<glyph unicode="&#xbb;" horiz-adv-x="1426" d="M89 952h332l369 -329q18 -17 28.5 -40.5t10.5 -47.5q0 -53 -41 -89l-361 -315h-336l463 404zM622 952h332l368 -329q19 -17 29 -40.5t10 -47.5q0 -54 -41 -89l-360 -315h-336l463 404z" />
<glyph unicode="&#xbc;" horiz-adv-x="1616" d="M96 1096v182h276v-657h-182v475h-94zM141 12l737 1291h239l-737 -1291h-239zM898 365v329h183v-237h428v-183h-518q-20 0 -36.5 7t-29.5 19.5t-20 29t-7 35.5zM1326 37v657h183v-657h-183z" />
<glyph unicode="&#xbd;" horiz-adv-x="1551" d="M96 1096v182h276v-657h-182v475h-94zM141 12l737 1291h239l-737 -1291h-239zM847 37v233q0 34 12 67.5t36 60t59 43t80 16.5h241v55h-381v182h377q45 0 80 -16.5t58.5 -43t35.5 -59.5t12 -67v-47q0 -45 -16.5 -80t-43 -59t-59.5 -36t-67 -12h-242v-55h428v-182h-610z" />
<glyph unicode="&#xbe;" horiz-adv-x="1881" d="M114 621v182h381v293h-381v182h377q45 0 80 -16.5t58.5 -43t35.5 -59.5t12 -67v-285q0 -45 -16.5 -80t-43 -58.5t-59.5 -35.5t-67 -12h-377zM114 858v182h502v-182h-502zM405 12l737 1291h240l-738 -1291h-239zM1163 365v329h182v-237h428v-183h-518q-19 0 -36 7 t-29.5 19.5t-19.5 29t-7 35.5zM1591 37v657h182v-657h-182z" />
<glyph unicode="&#xbf;" horiz-adv-x="1354" d="M81 -43v117q0 55 19 119t62.5 119t113 91.5t170.5 36.5h221v234h260v-365q0 -27 -10 -50.5t-27.5 -41.5t-41 -28.5t-50.5 -10.5h-352q-51 0 -78 -26t-27 -78v-117q0 -104 105 -104h833v-261h-833q-37 0 -78.5 8.5t-82 26.5t-77.5 47t-65 69.5t-45 93.5t-17 120zM669 895 q0 27 10 50.5t27.5 41t41 27.5t50.5 10q26 0 49.5 -10t41 -27.5t28 -41t10.5 -50.5q0 -26 -10.5 -49.5t-28 -41t-41 -28t-49.5 -10.5q-27 0 -50.5 10.5t-41 28t-27.5 41t-10 49.5z" />
<glyph unicode="&#xc0;" horiz-adv-x="1709" d="M124 0v717q0 157 54 289t150 227t227 148t286 53h586q27 0 51 -10t42 -28t28 -42t10 -51v-1303h-260v352h-914v-352h-260zM368 1756l110 243l482 -280l-70 -150zM384 612h914v562h-457q-12 0 -50.5 -3.5t-89 -17.5t-106.5 -43t-103 -80t-77.5 -127.5t-30.5 -185.5v-105z " />
<glyph unicode="&#xc1;" horiz-adv-x="1709" d="M124 0v717q0 157 54 289t150 227t227 148t286 53h586q27 0 51 -10t42 -28t28 -42t10 -51v-1303h-260v352h-914v-352h-260zM384 612h914v562h-457q-12 0 -50.5 -3.5t-89 -17.5t-106.5 -43t-103 -80t-77.5 -127.5t-30.5 -185.5v-105zM821 1719l481 280l110 -243l-522 -187z " />
<glyph unicode="&#xc2;" horiz-adv-x="1709" d="M124 0v717q0 157 54 289t150 227t227 148t286 53h586q27 0 51 -10t42 -28t28 -42t10 -51v-1303h-260v352h-914v-352h-260zM372 1737l469 266l469 -266l-121 -168l-348 180l-348 -180zM384 612h914v562h-457q-12 0 -50.5 -3.5t-89 -17.5t-106.5 -43t-103 -80t-77.5 -127.5 t-30.5 -185.5v-105z" />
<glyph unicode="&#xc3;" horiz-adv-x="1709" d="M124 0v717q0 157 54 289t150 227t227 148t286 53h586q27 0 51 -10t42 -28t28 -42t10 -51v-1303h-260v352h-914v-352h-260zM384 612h914v562h-457q-12 0 -50.5 -3.5t-89 -17.5t-106.5 -43t-103 -80t-77.5 -127.5t-30.5 -185.5v-105zM447 1577q0 85 20.5 149.5t55 108 t80 65t96.5 21.5q47 0 81.5 -19t64.5 -41.5t58.5 -41t64.5 -18.5q30 0 47.5 15t26.5 34.5t12 39.5t4 31h176q0 -96 -20 -162t-54 -106.5t-79.5 -58t-96.5 -17.5q-54 0 -91 19t-66 41.5t-55 41.5t-58 19q-30 0 -47.5 -15t-26.5 -35.5t-12 -40.5t-4 -30h-177z" />
<glyph unicode="&#xc4;" horiz-adv-x="1709" d="M124 0v717q0 157 54 289t150 227t227 148t286 53h586q27 0 51 -10t42 -28t28 -42t10 -51v-1303h-260v352h-914v-352h-260zM384 612h914v562h-457q-12 0 -50.5 -3.5t-89 -17.5t-106.5 -43t-103 -80t-77.5 -127.5t-30.5 -185.5v-105zM480 1725q0 26 10 49.5t27.5 41t41 28 t50.5 10.5q26 0 49.5 -10.5t41 -28t28 -41t10.5 -49.5q0 -27 -10.5 -50.5t-28 -41t-41 -27.5t-49.5 -10q-27 0 -50.5 10t-41 27.5t-27.5 41t-10 50.5zM943 1725q0 26 10 49.5t27.5 41t41 28t50.5 10.5q26 0 49.5 -10.5t41 -28t28 -41t10.5 -49.5q0 -27 -10.5 -50.5t-28 -41 t-41 -27.5t-49.5 -10q-27 0 -50.5 10t-41 27.5t-27.5 41t-10 50.5z" />
<glyph unicode="&#xc5;" horiz-adv-x="1709" d="M124 0v717q0 157 54 289t150 227t227 148t286 53h586q27 0 51 -10t42 -28t28 -42t10 -51v-1303h-260v352h-914v-352h-260zM384 612h914v562h-457q-12 0 -50.5 -3.5t-89 -17.5t-106.5 -43t-103 -80t-77.5 -127.5t-30.5 -185.5v-105zM550 1764q0 49 21.5 92.5t59.5 76 t91.5 51.5t118.5 19q71 0 125.5 -19t91 -51.5t55 -76t18.5 -92.5t-20 -92.5t-57.5 -76.5t-91.5 -52t-121 -19q-69 0 -123 19t-91.5 52t-57 76.5t-19.5 92.5zM742 1764q0 -41 25.5 -69t73.5 -28t72 28t24 69q0 40 -24 68t-72 28t-73.5 -28t-25.5 -68z" />
<glyph unicode="&#xc6;" horiz-adv-x="2700" d="M124 0v717q0 157 54 289t150 227t227 148t286 53h586h10h1163v-260h-1042v-809q0 -51 27 -78t79 -27h936v-260h-938q-36 0 -76.5 8t-80.5 25.5t-76.5 45t-65 66.5t-46.5 90.5t-19 116.5h-914v-352h-260zM384 612h914v562h-457q-12 0 -50.5 -3.5t-89 -17.5t-106.5 -43 t-103 -80t-77.5 -127.5t-30.5 -185.5v-105zM1662 586v262h822v-262h-822z" />
<glyph unicode="&#xc7;" horiz-adv-x="1530" d="M132 365v704q0 36 8.5 77.5t26.5 82t47 77.5t69.5 65.5t93.5 45.5t120 17h938v-260h-938q-51 0 -78 -27t-27 -80v-702q0 -50 27.5 -77.5t77.5 -27.5h938v-260h-514l-27 -70q29 0 65.5 -7t69 -26.5t54.5 -54.5t22 -92t-28.5 -96t-74 -63t-102 -34t-112.5 -10 q-51 0 -85 2.5t-58 6t-42.5 7.5t-37.5 7v176q40 -19 92.5 -32t107.5 -13q57 0 95 11.5t38 39.5q0 16 -12 26t-30 15.5t-38 7.5t-36 2q-23 0 -49 -3t-46 -9l78 209h-268q-36 0 -77.5 8.5t-82 26.5t-77.5 46.5t-65.5 69t-45.5 94t-17 120.5z" />
<glyph unicode="&#xc8;" horiz-adv-x="1547" d="M145 365v938q0 27 10 51t27.5 42t41.5 28t52 10h1171v-260h-1042v-809q0 -51 27 -78t79 -27h936v-260h-938q-54 0 -118 19t-118.5 62.5t-91 113t-36.5 170.5zM346 1756l110 243l482 -280l-70 -150zM509 586v262h821v-262h-821z" />
<glyph unicode="&#xc9;" horiz-adv-x="1547" d="M145 365v938q0 27 10 51t27.5 42t41.5 28t52 10h1171v-260h-1042v-809q0 -51 27 -78t79 -27h936v-260h-938q-54 0 -118 19t-118.5 62.5t-91 113t-36.5 170.5zM509 586v262h821v-262h-821zM817 1719l481 280l110 -243l-522 -187z" />
<glyph unicode="&#xca;" horiz-adv-x="1547" d="M145 365v938q0 27 10 51t27.5 42t41.5 28t52 10h1171v-260h-1042v-809q0 -51 27 -78t79 -27h936v-260h-938q-54 0 -118 19t-118.5 62.5t-91 113t-36.5 170.5zM327 1737l469 266l469 -266l-121 -168l-348 180l-348 -180zM509 586v262h821v-262h-821z" />
<glyph unicode="&#xcb;" horiz-adv-x="1547" d="M145 365v938q0 27 10 51t27.5 42t41.5 28t52 10h1171v-260h-1042v-809q0 -51 27 -78t79 -27h936v-260h-938q-54 0 -118 19t-118.5 62.5t-91 113t-36.5 170.5zM497 1725q0 26 10 49.5t27.5 41t41 28t50.5 10.5q26 0 49.5 -10.5t41 -28t28 -41t10.5 -49.5 q0 -27 -10.5 -50.5t-28 -41t-41 -27.5t-49.5 -10q-27 0 -50.5 10t-41 27.5t-27.5 41t-10 50.5zM509 586v262h821v-262h-821zM960 1725q0 26 10 49.5t27.5 41t41 28t50.5 10.5q26 0 49.5 -10.5t41 -28t28 -41t10.5 -49.5q0 -27 -10.5 -50.5t-28 -41t-41 -27.5t-49.5 -10 q-27 0 -50.5 10t-41 27.5t-27.5 41t-10 50.5z" />
<glyph unicode="&#xcc;" horiz-adv-x="566" d="M-247 1756l110 243l482 -280l-70 -150zM153 0v1434h260v-1434h-260z" />
<glyph unicode="&#xcd;" horiz-adv-x="566" d="M153 0v1434h260v-1434h-260zM214 1719l481 280l110 -243l-522 -187z" />
<glyph unicode="&#xce;" horiz-adv-x="566" d="M-184 1737l469 266l469 -266l-121 -168l-348 180l-348 -180zM153 0v1434h260v-1434h-260z" />
<glyph unicode="&#xcf;" horiz-adv-x="566" d="M-76 1725q0 26 10 49.5t27.5 41t41 28t50.5 10.5q26 0 49.5 -10.5t41 -28t28 -41t10.5 -49.5q0 -27 -10.5 -50.5t-28 -41t-41 -27.5t-49.5 -10q-27 0 -50.5 10t-41 27.5t-27.5 41t-10 50.5zM153 0v1434h260v-1434h-260zM387 1725q0 26 10 49.5t27.5 41t41 28t50.5 10.5 q26 0 49.5 -10.5t41 -28t28 -41t10.5 -49.5q0 -27 -10.5 -50.5t-28 -41t-41 -27.5t-49.5 -10q-27 0 -50.5 10t-41 27.5t-27.5 41t-10 50.5z" />
<glyph unicode="&#xd0;" horiz-adv-x="1920" d="M44 600v234h338v469q0 27 10.5 51t28.5 42t41.5 28t50.5 10h705q117 0 225.5 -44t191 -123.5t132 -189.5t49.5 -243v-234q0 -131 -47.5 -241t-129.5 -189.5t-190.5 -124.5t-230.5 -45h-705q-27 0 -50.5 10t-41.5 27.5t-28.5 41.5t-10.5 52v469h-338zM644 260h572 q78 0 140.5 25.5t107 70.5t68.5 107.5t24 136.5v234q0 77 -28 140t-74.5 108t-107.5 69t-128 23h-574v-340h338v-234h-338v-340z" />
<glyph unicode="&#xd1;" horiz-adv-x="1735" d="M151 0v1323q0 40 22.5 72.5t57.5 48.5q37 15 76 7.5t67 -36.5l950 -991v1010h260v-1323q0 -28 -10.5 -52t-28 -41.5t-41.5 -27.5t-51 -10q-24 0 -48.5 9t-43.5 29l-950 992v-1010h-260zM474 1497q0 85 20.5 149.5t55 108t80 65t96.5 21.5q47 0 81.5 -19t64.5 -41.5 t58.5 -41t64.5 -18.5q30 0 47.5 15t26.5 34.5t12 39.5t4 31h176q0 -96 -20 -162t-54 -106.5t-79.5 -58t-96.5 -17.5q-54 0 -91 19t-66 41.5t-55 41.5t-58 19q-30 0 -47.5 -15t-26.5 -35.5t-12 -40.5t-4 -30h-177z" />
<glyph unicode="&#xd2;" horiz-adv-x="1762" d="M106 580v274q0 130 45.5 240.5t125.5 190t190 124.5t239 45h352q129 0 238.5 -45t189.5 -124.5t125 -190t45 -240.5v-274q0 -131 -45 -241t-125 -190t-189.5 -124.5t-238.5 -44.5h-352q-129 0 -239 44.5t-190 124.5t-125.5 190t-45.5 241zM350 1756l110 243l482 -280 l-70 -150zM366 580q0 -77 24.5 -139.5t69.5 -107t107.5 -69t138.5 -24.5h350q76 0 138.5 24.5t107.5 69t69.5 107t24.5 139.5v274q0 77 -24.5 139.5t-69 107t-107 69t-137.5 24.5h-352q-76 0 -138.5 -24.5t-107.5 -69t-69.5 -107t-24.5 -139.5v-274z" />
<glyph unicode="&#xd3;" horiz-adv-x="1762" d="M106 580v274q0 130 45.5 240.5t125.5 190t190 124.5t239 45h352q129 0 238.5 -45t189.5 -124.5t125 -190t45 -240.5v-274q0 -131 -45 -241t-125 -190t-189.5 -124.5t-238.5 -44.5h-352q-129 0 -239 44.5t-190 124.5t-125.5 190t-45.5 241zM366 580q0 -77 24.5 -139.5 t69.5 -107t107.5 -69t138.5 -24.5h350q76 0 138.5 24.5t107.5 69t69.5 107t24.5 139.5v274q0 77 -24.5 139.5t-69 107t-107 69t-137.5 24.5h-352q-76 0 -138.5 -24.5t-107.5 -69t-69.5 -107t-24.5 -139.5v-274zM800 1719l481 280l110 -243l-522 -187z" />
<glyph unicode="&#xd4;" horiz-adv-x="1762" d="M106 580v274q0 130 45.5 240.5t125.5 190t190 124.5t239 45h352q129 0 238.5 -45t189.5 -124.5t125 -190t45 -240.5v-274q0 -131 -45 -241t-125 -190t-189.5 -124.5t-238.5 -44.5h-352q-129 0 -239 44.5t-190 124.5t-125.5 190t-45.5 241zM366 580q0 -77 24.5 -139.5 t69.5 -107t107.5 -69t138.5 -24.5h350q76 0 138.5 24.5t107.5 69t69.5 107t24.5 139.5v274q0 77 -24.5 139.5t-69 107t-107 69t-137.5 24.5h-352q-76 0 -138.5 -24.5t-107.5 -69t-69.5 -107t-24.5 -139.5v-274zM411 1737l469 266l469 -266l-121 -168l-348 180l-348 -180z " />
<glyph unicode="&#xd5;" horiz-adv-x="1762" d="M106 580v274q0 130 45.5 240.5t125.5 190t190 124.5t239 45h352q129 0 238.5 -45t189.5 -124.5t125 -190t45 -240.5v-274q0 -131 -45 -241t-125 -190t-189.5 -124.5t-238.5 -44.5h-352q-129 0 -239 44.5t-190 124.5t-125.5 190t-45.5 241zM366 580q0 -77 24.5 -139.5 t69.5 -107t107.5 -69t138.5 -24.5h350q76 0 138.5 24.5t107.5 69t69.5 107t24.5 139.5v274q0 77 -24.5 139.5t-69 107t-107 69t-137.5 24.5h-352q-76 0 -138.5 -24.5t-107.5 -69t-69.5 -107t-24.5 -139.5v-274zM486 1597q0 85 20.5 149.5t55 108t80 65t96.5 21.5 q47 0 81.5 -19t64.5 -41.5t58.5 -41t64.5 -18.5q30 0 47.5 15t26.5 34.5t12 39.5t4 31h176q0 -96 -20 -162t-54 -106.5t-79.5 -58t-96.5 -17.5q-54 0 -91 19t-66 41.5t-55 41.5t-58 19q-30 0 -47.5 -15t-26.5 -35.5t-12 -40.5t-4 -30h-177z" />
<glyph unicode="&#xd6;" horiz-adv-x="1762" d="M106 580v274q0 130 45.5 240.5t125.5 190t190 124.5t239 45h352q129 0 238.5 -45t189.5 -124.5t125 -190t45 -240.5v-274q0 -131 -45 -241t-125 -190t-189.5 -124.5t-238.5 -44.5h-352q-129 0 -239 44.5t-190 124.5t-125.5 190t-45.5 241zM366 580q0 -77 24.5 -139.5 t69.5 -107t107.5 -69t138.5 -24.5h350q76 0 138.5 24.5t107.5 69t69.5 107t24.5 139.5v274q0 77 -24.5 139.5t-69 107t-107 69t-137.5 24.5h-352q-76 0 -138.5 -24.5t-107.5 -69t-69.5 -107t-24.5 -139.5v-274zM519 1725q0 26 10 49.5t27.5 41t41 28t50.5 10.5 q26 0 49.5 -10.5t41 -28t28 -41t10.5 -49.5q0 -27 -10.5 -50.5t-28 -41t-41 -27.5t-49.5 -10q-27 0 -50.5 10t-41 27.5t-27.5 41t-10 50.5zM982 1725q0 26 10 49.5t27.5 41t41 28t50.5 10.5q26 0 49.5 -10.5t41 -28t28 -41t10.5 -49.5q0 -27 -10.5 -50.5t-28 -41t-41 -27.5 t-49.5 -10q-27 0 -50.5 10t-41 27.5t-27.5 41t-10 50.5z" />
<glyph unicode="&#xd7;" horiz-adv-x="1186" d="M93 365l353 352l-353 352h295l205 -205l205 205h295l-352 -352l352 -352h-295l-205 204l-205 -204h-295z" />
<glyph unicode="&#xd8;" horiz-adv-x="1764" d="M89 -104l195 247q-84 81 -130 192t-46 245v274q0 131 45.5 241.5t125.5 190t190 124t239 44.5h352q60 0 116 -10t107 -29l97 123h297l-195 -248q82 -80 129 -191t47 -245v-274q0 -131 -45 -241t-125 -190t-189.5 -124.5t-238.5 -44.5h-352q-60 0 -116.5 10t-108.5 28 l-97 -122h-297zM368 580q0 -72 20.5 -129t57.5 -101l661 842q-12 2 -23 2h-24h-352q-76 0 -138.5 -24.5t-107.5 -69t-69.5 -107t-24.5 -139.5v-274zM659 242q12 -2 23.5 -2h25.5h350q76 0 138.5 24.5t107.5 69t69.5 107t24.5 139.5v274q0 69 -20.5 127.5t-57.5 101.5z" />
<glyph unicode="&#xd9;" horiz-adv-x="1707" d="M122 717v717h260v-717q0 -110 30.5 -186t77.5 -127t103 -80t106.5 -43t89 -17.5t50.5 -3.5h457v1174h260v-1303q0 -28 -10 -52t-28 -41.5t-42 -27.5t-51 -10h-586q-83 0 -168 18t-164.5 55.5t-149.5 95.5t-122.5 137.5t-82.5 182t-30 228.5zM348 1674l110 243l482 -280 l-70 -150z" />
<glyph unicode="&#xda;" horiz-adv-x="1707" d="M122 717v717h260v-717q0 -110 30.5 -186t77.5 -127t103 -80t106.5 -43t89 -17.5t50.5 -3.5h457v1174h260v-1303q0 -28 -10 -52t-28 -41.5t-42 -27.5t-51 -10h-586q-83 0 -168 18t-164.5 55.5t-149.5 95.5t-122.5 137.5t-82.5 182t-30 228.5zM757 1637l481 280l110 -243 l-522 -187z" />
<glyph unicode="&#xdb;" horiz-adv-x="1707" d="M122 717v717h260v-717q0 -110 30.5 -186t77.5 -127t103 -80t106.5 -43t89 -17.5t50.5 -3.5h457v1174h260v-1303q0 -28 -10 -52t-28 -41.5t-42 -27.5t-51 -10h-586q-83 0 -168 18t-164.5 55.5t-149.5 95.5t-122.5 137.5t-82.5 182t-30 228.5zM370 1737l469 266l469 -266 l-121 -168l-348 180l-348 -180z" />
<glyph unicode="&#xdc;" horiz-adv-x="1707" d="M122 717v717h260v-717q0 -110 30.5 -186t77.5 -127t103 -80t106.5 -43t89 -17.5t50.5 -3.5h457v1174h260v-1303q0 -28 -10 -52t-28 -41.5t-42 -27.5t-51 -10h-586q-83 0 -168 18t-164.5 55.5t-149.5 95.5t-122.5 137.5t-82.5 182t-30 228.5zM478 1657q0 26 10 49.5 t27.5 41t41 28t50.5 10.5q26 0 49.5 -10.5t41 -28t28 -41t10.5 -49.5q0 -27 -10.5 -50.5t-28 -41t-41 -27.5t-49.5 -10q-27 0 -50.5 10t-41 27.5t-27.5 41t-10 50.5zM941 1657q0 26 10 49.5t27.5 41t41 28t50.5 10.5q26 0 49.5 -10.5t41 -28t28 -41t10.5 -49.5 q0 -27 -10.5 -50.5t-28 -41t-41 -27.5t-49.5 -10q-27 0 -50.5 10t-41 27.5t-27.5 41t-10 50.5z" />
<glyph unicode="&#xdd;" horiz-adv-x="1600" d="M83 954v480h260v-480q0 -51 16 -91.5t45 -69.5t70.5 -44.5t92.5 -15.5h469q37 6 76 15.5t71 32.5t53 64t21 109v480h260v-480q0 -89 -22.5 -159t-59.5 -123.5t-86.5 -91.5t-102.5 -62.5t-107.5 -35.5t-102.5 -11h-105v-471h-262v471h-104q-48 0 -102.5 11t-108 35.5 t-102.5 62.5t-86.5 91.5t-60 124t-22.5 158.5zM800 1575l481 280l110 -243l-522 -187z" />
<glyph unicode="&#xde;" horiz-adv-x="1662" d="M153 -104v1654h260v-315q26 8 53 12t51 4h588q88 0 158 -22t123.5 -59.5t91 -86.5t62 -103t35.5 -108.5t11 -103.5v-117q0 -89 -22 -159t-59.5 -123t-86.5 -91t-102.5 -62t-108 -35t-102.5 -11h-588v260h588q50 4 90.5 20t69.5 44t45 67.5t16 89.5v117q0 49 -15.5 90 t-44 70.5t-69.5 46t-92 16.5h-586q-51 0 -77.5 -25.5t-28.5 -70.5v-999h-260z" />
<glyph unicode="&#xdf;" horiz-adv-x="1604" d="M126 0v1180q0 100 36 169t90.5 112t118 62t118.5 19h350q66 0 119 -16.5t93.5 -45t69.5 -65t47.5 -77t27 -81.5t8.5 -77q0 -100 -36.5 -169.5t-91 -112.5t-118.5 -62t-119 -19h-49q-20 0 -31 -5t-16 -12t-6 -16t0 -16q0 -15 4.5 -23.5t11.5 -12.5t16.5 -4.5t18.5 -0.5 h401q66 0 119 -17t93.5 -45t69 -65t46.5 -77.5t26.5 -82t8.5 -78.5q0 -100 -36 -169t-90.5 -112t-118 -62t-118.5 -19h-700v260h700q51 0 78 26.5t27 75.5q-3 105 -105 105h-401q-86 0 -145.5 29.5t-96.5 74.5t-53.5 97.5t-16.5 97.5q0 85 31 144.5t78 96.5t101.5 53.5 t101.5 16.5h51q104 0 104 103q-3 104 -104 104h-348q-53 0 -79 -26.5t-26 -77.5v-1180h-260z" />
<glyph unicode="&#xe0;" d="M53 358q0 54 19 117t61.5 116.5t111 89.5t166.5 36h469v-248h-469q-53 0 -82 -32.5t-29 -80.5q0 -51 33.5 -79.5t79.5 -28.5h467q53 0 82 32t29 80v363q0 51 -31.5 81t-79.5 30h-571v247h571q54 0 116.5 -19t116 -61.5t89.5 -111t36 -166.5v-365q0 -54 -19 -116.5 t-61.5 -116t-111 -89.5t-166.5 -36h-469q-54 0 -116.5 19t-116 61.5t-89.5 111t-36 166.5zM111 1407l110 243l482 -280l-70 -150z" />
<glyph unicode="&#xe1;" d="M53 358q0 54 19 117t61.5 116.5t111 89.5t166.5 36h469v-248h-469q-53 0 -82 -32.5t-29 -80.5q0 -51 33.5 -79.5t79.5 -28.5h467q53 0 82 32t29 80v363q0 51 -31.5 81t-79.5 30h-571v247h571q54 0 116.5 -19t116 -61.5t89.5 -111t36 -166.5v-365q0 -54 -19 -116.5 t-61.5 -116t-111 -89.5t-166.5 -36h-469q-54 0 -116.5 19t-116 61.5t-89.5 111t-36 166.5zM616 1370l481 280l110 -243l-522 -187z" />
<glyph unicode="&#xe2;" d="M53 358q0 54 19 117t61.5 116.5t111 89.5t166.5 36h469v-248h-469q-53 0 -82 -32.5t-29 -80.5q0 -51 33.5 -79.5t79.5 -28.5h467q53 0 82 32t29 80v363q0 51 -31.5 81t-79.5 30h-571v247h571q54 0 116.5 -19t116 -61.5t89.5 -111t36 -166.5v-365q0 -54 -19 -116.5 t-61.5 -116t-111 -89.5t-166.5 -36h-469q-54 0 -116.5 19t-116 61.5t-89.5 111t-36 166.5zM176 1388l469 266l469 -266l-121 -168l-348 180l-348 -180z" />
<glyph unicode="&#xe3;" d="M53 358q0 54 19 117t61.5 116.5t111 89.5t166.5 36h469v-248h-469q-53 0 -82 -32.5t-29 -80.5q0 -51 33.5 -79.5t79.5 -28.5h467q53 0 82 32t29 80v363q0 51 -31.5 81t-79.5 30h-571v247h571q54 0 116.5 -19t116 -61.5t89.5 -111t36 -166.5v-365q0 -54 -19 -116.5 t-61.5 -116t-111 -89.5t-166.5 -36h-469q-54 0 -116.5 19t-116 61.5t-89.5 111t-36 166.5zM251 1228q0 85 20.5 149.5t55 108t80 65t96.5 21.5q47 0 81.5 -19t64.5 -41.5t58.5 -41t64.5 -18.5q30 0 47.5 15t26.5 34.5t12 39.5t4 31h176q0 -96 -20 -162t-54 -106.5t-79.5 -58 t-96.5 -17.5q-54 0 -91 19t-66 41.5t-55 41.5t-58 19q-30 0 -47.5 -15t-26.5 -35.5t-12 -40.5t-4 -30h-177z" />
<glyph unicode="&#xe4;" d="M53 358q0 54 19 117t61.5 116.5t111 89.5t166.5 36h469v-248h-469q-53 0 -82 -32.5t-29 -80.5q0 -51 33.5 -79.5t79.5 -28.5h467q53 0 82 32t29 80v363q0 51 -31.5 81t-79.5 30h-571v247h571q54 0 116.5 -19t116 -61.5t89.5 -111t36 -166.5v-365q0 -54 -19 -116.5 t-61.5 -116t-111 -89.5t-166.5 -36h-469q-54 0 -116.5 19t-116 61.5t-89.5 111t-36 166.5zM284 1376q0 26 10 49.5t27.5 41t41 28t50.5 10.5q26 0 49.5 -10.5t41 -28t28 -41t10.5 -49.5q0 -27 -10.5 -50.5t-28 -41t-41 -27.5t-49.5 -10q-27 0 -50.5 10t-41 27.5t-27.5 41 t-10 50.5zM747 1376q0 26 10 49.5t27.5 41t41 28t50.5 10.5q26 0 49.5 -10.5t41 -28t28 -41t10.5 -49.5q0 -27 -10.5 -50.5t-28 -41t-41 -27.5t-49.5 -10q-27 0 -50.5 10t-41 27.5t-27.5 41t-10 50.5z" />
<glyph unicode="&#xe5;" d="M53 358q0 54 19 117t61.5 116.5t111 89.5t166.5 36h469v-248h-469q-53 0 -82 -32.5t-29 -80.5q0 -51 33.5 -79.5t79.5 -28.5h467q53 0 82 32t29 80v363q0 51 -31.5 81t-79.5 30h-571v247h571q54 0 116.5 -19t116 -61.5t89.5 -111t36 -166.5v-365q0 -54 -19 -116.5 t-61.5 -116t-111 -89.5t-166.5 -36h-469q-54 0 -116.5 19t-116 61.5t-89.5 111t-36 166.5zM354 1415q0 49 21.5 92.5t59.5 76t91.5 51.5t118.5 19q71 0 125.5 -19t91 -51.5t55 -76t18.5 -92.5t-20 -92.5t-57.5 -76.5t-91.5 -52t-121 -19q-69 0 -123 19t-91.5 52t-57 76.5 t-19.5 92.5zM546 1415q0 -41 25.5 -69t73.5 -28t72 28t24 69q0 40 -24 68t-72 28t-73.5 -28t-25.5 -68z" />
<glyph unicode="&#xe6;" horiz-adv-x="2231" d="M53 358q0 54 19 117t61.5 116.5t111 89.5t166.5 36h469v-248h-469q-53 0 -82 -32.5t-29 -80.5q0 -51 33.5 -79.5t79.5 -28.5h467q53 0 82 32t29 80v363q0 51 -31.5 81t-79.5 30h-571v247h571q54 0 116.5 -19t116.5 -63q42 38 100.5 60t135.5 22h469q54 0 116.5 -19 t116 -61.5t89.5 -111t36 -166.5q0 -54 -19 -116.5t-61.5 -116t-111 -89.5t-166.5 -36h-469v247h469q53 0 81.5 32.5t28.5 80.5q0 51 -32 80t-78 29h-469q-53 0 -82 -32.5t-29 -78.5v-365v-10q3 -48 35 -74t78 -26h467v-248h-469q-54 0 -117 19.5t-117 62.5 q-43 -37 -100.5 -59.5t-134.5 -22.5h-469q-54 0 -116.5 19t-116 61.5t-89.5 111t-36 166.5z" />
<glyph unicode="&#xe7;" horiz-adv-x="1262" d="M100 365v352q0 37 8.5 78t26.5 81.5t46.5 77.5t69 65t93.5 45t120 17h705v-260h-705q-51 0 -77.5 -26t-26.5 -80v-350q0 -51 27 -78t79 -27h703v-260h-398l-26 -70q29 0 65.5 -7t69 -26.5t54.5 -54.5t22 -92t-28.5 -96t-74 -63t-102.5 -34t-113 -10q-51 0 -85 2.5t-58 6 t-42.5 7.5t-37.5 7v176q40 -19 92.5 -32t108.5 -13q57 0 95 11.5t38 39.5q0 16 -12 26t-30 15.5t-38.5 7.5t-36.5 2q-23 0 -48.5 -3t-45.5 -9l78 209h-152q-54 0 -118 19t-118.5 62.5t-91 113t-36.5 170.5z" />
<glyph unicode="&#xe8;" d="M100 358v365q0 54 19 116.5t61.5 116t111 89.5t166.5 36h469q54 0 116.5 -19t116 -61.5t89.5 -111t36 -166.5q0 -54 -19 -116.5t-61.5 -116t-111 -89.5t-166.5 -36h-469v247h469q53 0 82 32.5t29 80.5q0 51 -32.5 80t-78.5 29h-469q-53 0 -82 -32.5t-29 -80.5v-363 q0 -52 32.5 -81t80.5 -29h467v-248h-469q-54 0 -116.5 19t-116 61.5t-89.5 111t-36 166.5zM142 1407l110 243l482 -280l-70 -150z" />
<glyph unicode="&#xe9;" d="M100 358v365q0 54 19 116.5t61.5 116t111 89.5t166.5 36h469q54 0 116.5 -19t116 -61.5t89.5 -111t36 -166.5q0 -54 -19 -116.5t-61.5 -116t-111 -89.5t-166.5 -36h-469v247h469q53 0 82 32.5t29 80.5q0 51 -32.5 80t-78.5 29h-469q-53 0 -82 -32.5t-29 -80.5v-363 q0 -52 32.5 -81t80.5 -29h467v-248h-469q-54 0 -116.5 19t-116 61.5t-89.5 111t-36 166.5zM622 1370l481 280l110 -243l-522 -187z" />
<glyph unicode="&#xea;" d="M100 358v365q0 54 19 116.5t61.5 116t111 89.5t166.5 36h469q54 0 116.5 -19t116 -61.5t89.5 -111t36 -166.5q0 -54 -19 -116.5t-61.5 -116t-111 -89.5t-166.5 -36h-469v247h469q53 0 82 32.5t29 80.5q0 51 -32.5 80t-78.5 29h-469q-53 0 -82 -32.5t-29 -80.5v-363 q0 -52 32.5 -81t80.5 -29h467v-248h-469q-54 0 -116.5 19t-116 61.5t-89.5 111t-36 166.5zM223 1388l469 266l469 -266l-121 -168l-348 180l-348 -180z" />
<glyph unicode="&#xeb;" d="M100 358v365q0 54 19 116.5t61.5 116t111 89.5t166.5 36h469q54 0 116.5 -19t116 -61.5t89.5 -111t36 -166.5q0 -54 -19 -116.5t-61.5 -116t-111 -89.5t-166.5 -36h-469v247h469q53 0 82 32.5t29 80.5q0 51 -32.5 80t-78.5 29h-469q-53 0 -82 -32.5t-29 -80.5v-363 q0 -52 32.5 -81t80.5 -29h467v-248h-469q-54 0 -116.5 19t-116 61.5t-89.5 111t-36 166.5zM331 1376q0 26 10 49.5t27.5 41t41 28t50.5 10.5q26 0 49.5 -10.5t41 -28t28 -41t10.5 -49.5q0 -27 -10.5 -50.5t-28 -41t-41 -27.5t-49.5 -10q-27 0 -50.5 10t-41 27.5t-27.5 41 t-10 50.5zM794 1376q0 26 10 49.5t27.5 41t41 28t50.5 10.5q26 0 49.5 -10.5t41 -28t28 -41t10.5 -49.5q0 -27 -10.5 -50.5t-28 -41t-41 -27.5t-49.5 -10q-27 0 -50.5 10t-41 27.5t-27.5 41t-10 50.5z" />
<glyph unicode="&#xec;" horiz-adv-x="513" d="M-264 1407l110 243l482 -280l-70 -150zM126 0v1081h260v-1081h-260z" />
<glyph unicode="&#xed;" horiz-adv-x="513" d="M126 0v1081h260v-1081h-260zM197 1370l481 280l110 -243l-522 -187z" />
<glyph unicode="&#xee;" horiz-adv-x="513" d="M-210 1327l469 266l469 -266l-121 -168l-348 180l-348 -180zM126 0v1081h260v-1081h-260z" />
<glyph unicode="&#xef;" horiz-adv-x="513" d="M-102 1376q0 26 10 49.5t27.5 41t41 28t50.5 10.5q26 0 49.5 -10.5t41 -28t28 -41t10.5 -49.5q0 -27 -10.5 -50.5t-28 -41t-41 -27.5t-49.5 -10q-27 0 -50.5 10t-41 27.5t-27.5 41t-10 50.5zM126 0v1081h260v-1081h-260zM361 1376q0 26 10 49.5t27.5 41t41 28t50.5 10.5 q26 0 49.5 -10.5t41 -28t28 -41t10.5 -49.5q0 -27 -10.5 -50.5t-28 -41t-41 -27.5t-49.5 -10q-27 0 -50.5 10t-41 27.5t-27.5 41t-10 50.5z" />
<glyph unicode="&#xf0;" horiz-adv-x="1414" d="M100 365v352q0 100 36.5 169.5t91 113t118.5 62.5t118 19h469v-260h-467q-52 0 -79 -26.5t-27 -77.5v-350q0 -53 26.5 -80t77.5 -27h469q53 0 79 27t26 78v821q0 50 -15 90.5t-43.5 69.5t-70 45t-93.5 16h-131v262h131q75 0 137.5 -16.5t112 -45t87.5 -67t65 -82.5 l237 119l105 -209l-266 -133q2 -12 3 -24.5t1 -24.5v-821q0 -67 -17 -120.5t-45 -94t-65 -69t-77.5 -46.5t-82 -26.5t-78.5 -8.5h-469q-67 0 -120 17t-93.5 45.5t-69 65.5t-46.5 77.5t-26.5 82t-8.5 77.5z" />
<glyph unicode="&#xf1;" horiz-adv-x="1426" d="M122 0v952q0 27 10 50.5t28 41t42 27.5t51 10h586q49 0 103.5 -11t108 -35.5t102 -62t86 -91t59.5 -123.5t22 -158v-600h-260v600q0 51 -17.5 91.5t-47.5 69.5t-70.5 44.5t-87.5 15.5h-455v-821h-260zM327 1228q0 85 20.5 149.5t55 108t80 65t96.5 21.5q47 0 81.5 -19 t64.5 -41.5t58.5 -41t64.5 -18.5q30 0 47.5 15t26.5 34.5t12 39.5t4 31h176q0 -96 -20 -162t-54 -106.5t-79.5 -58t-96.5 -17.5q-54 0 -91 19t-66 41.5t-55 41.5t-58 19q-30 0 -47.5 -15t-26.5 -35.5t-12 -40.5t-4 -30h-177z" />
<glyph unicode="&#xf2;" horiz-adv-x="1397" d="M100 365v352q0 100 36.5 169.5t91 113t118.5 62.5t118 19h469q100 0 170 -36t113 -90.5t62.5 -118.5t19.5 -119v-352q0 -67 -17 -120.5t-45 -94t-65 -69t-77.5 -46.5t-82 -26.5t-78.5 -8.5h-469q-54 0 -118 19t-118.5 62.5t-91 113t-36.5 170.5zM164 1407l110 243 l482 -280l-70 -150zM360 365q0 -51 27 -78t79 -27h467q53 0 79 27t26 78v350q0 54 -27 80t-78 26h-467q-52 0 -79 -26.5t-27 -77.5v-352z" />
<glyph unicode="&#xf3;" horiz-adv-x="1397" d="M100 365v352q0 100 36.5 169.5t91 113t118.5 62.5t118 19h469q100 0 170 -36t113 -90.5t62.5 -118.5t19.5 -119v-352q0 -67 -17 -120.5t-45 -94t-65 -69t-77.5 -46.5t-82 -26.5t-78.5 -8.5h-469q-54 0 -118 19t-118.5 62.5t-91 113t-36.5 170.5zM360 365q0 -51 27 -78 t79 -27h467q53 0 79 27t26 78v350q0 54 -27 80t-78 26h-467q-52 0 -79 -26.5t-27 -77.5v-352zM639 1370l481 280l110 -243l-522 -187z" />
<glyph unicode="&#xf4;" horiz-adv-x="1397" d="M100 365v352q0 100 36.5 169.5t91 113t118.5 62.5t118 19h469q100 0 170 -36t113 -90.5t62.5 -118.5t19.5 -119v-352q0 -67 -17 -120.5t-45 -94t-65 -69t-77.5 -46.5t-82 -26.5t-78.5 -8.5h-469q-54 0 -118 19t-118.5 62.5t-91 113t-36.5 170.5zM229 1388l469 266 l469 -266l-121 -168l-348 180l-348 -180zM360 365q0 -51 27 -78t79 -27h467q53 0 79 27t26 78v350q0 54 -27 80t-78 26h-467q-52 0 -79 -26.5t-27 -77.5v-352z" />
<glyph unicode="&#xf5;" horiz-adv-x="1397" d="M100 365v352q0 100 36.5 169.5t91 113t118.5 62.5t118 19h469q100 0 170 -36t113 -90.5t62.5 -118.5t19.5 -119v-352q0 -67 -17 -120.5t-45 -94t-65 -69t-77.5 -46.5t-82 -26.5t-78.5 -8.5h-469q-54 0 -118 19t-118.5 62.5t-91 113t-36.5 170.5zM304 1228 q0 85 20.5 149.5t55 108t80 65t96.5 21.5q47 0 81.5 -19t64.5 -41.5t58.5 -41t64.5 -18.5q30 0 47.5 15t26.5 34.5t12 39.5t4 31h176q0 -96 -20 -162t-54 -106.5t-79.5 -58t-96.5 -17.5q-54 0 -91 19t-66 41.5t-55 41.5t-58 19q-30 0 -47.5 -15t-26.5 -35.5t-12 -40.5 t-4 -30h-177zM360 365q0 -51 27 -78t79 -27h467q53 0 79 27t26 78v350q0 54 -27 80t-78 26h-467q-52 0 -79 -26.5t-27 -77.5v-352z" />
<glyph unicode="&#xf6;" horiz-adv-x="1397" d="M100 365v352q0 100 36.5 169.5t91 113t118.5 62.5t118 19h469q100 0 170 -36t113 -90.5t62.5 -118.5t19.5 -119v-352q0 -67 -17 -120.5t-45 -94t-65 -69t-77.5 -46.5t-82 -26.5t-78.5 -8.5h-469q-54 0 -118 19t-118.5 62.5t-91 113t-36.5 170.5zM337 1376q0 26 10 49.5 t27.5 41t41 28t50.5 10.5q26 0 49.5 -10.5t41 -28t28 -41t10.5 -49.5q0 -27 -10.5 -50.5t-28 -41t-41 -27.5t-49.5 -10q-27 0 -50.5 10t-41 27.5t-27.5 41t-10 50.5zM360 365q0 -51 27 -78t79 -27h467q53 0 79 27t26 78v350q0 54 -27 80t-78 26h-467q-52 0 -79 -26.5 t-27 -77.5v-352zM800 1376q0 26 10 49.5t27.5 41t41 28t50.5 10.5q26 0 49.5 -10.5t41 -28t28 -41t10.5 -49.5q0 -27 -10.5 -50.5t-28 -41t-41 -27.5t-49.5 -10q-27 0 -50.5 10t-41 27.5t-27.5 41t-10 50.5z" />
<glyph unicode="&#xf7;" horiz-adv-x="1137" d="M100 600v234h938v-234h-938zM440 365q0 27 10 50.5t27.5 41t41 27.5t50.5 10t50.5 -10t41 -27.5t27.5 -41t10 -50.5t-10 -50.5t-27.5 -41t-41 -27.5t-50.5 -10t-50.5 10t-41 27.5t-27.5 41t-10 50.5zM440 1069q0 27 10 50.5t27.5 41t41 27.5t50.5 10t50.5 -10t41 -27.5 t27.5 -41t10 -50.5t-10 -50.5t-27.5 -41t-41 -27.5t-50.5 -10t-50.5 10t-41 27.5t-27.5 41t-10 50.5z" />
<glyph unicode="&#xf8;" horiz-adv-x="1397" d="M85 -104l138 188q-53 43 -88 111.5t-35 169.5v352q0 100 36.5 169.5t91 113t118.5 62.5t118 19h469h15l75 105h291l-139 -191q33 -28 56.5 -62.5t38 -71.5t21.5 -74t7 -70v-352q0 -67 -17 -120.5t-45 -94t-65 -69t-77.5 -46.5t-82 -26.5t-78.5 -8.5h-469h-14l-76 -104 h-289zM360 365q0 -41 18 -68l379 524h-291q-52 0 -79 -26.5t-27 -77.5v-352zM638 260h295q53 0 79 27t26 78v350q0 42 -19 67z" />
<glyph unicode="&#xf9;" horiz-adv-x="1426" d="M106 481v600h260v-600q0 -51 17.5 -91.5t47.5 -69.5t70.5 -44.5t87.5 -15.5h455v821h260v-950q0 -28 -10 -52t-27.5 -41.5t-41 -27.5t-50.5 -10h-588q-48 0 -102.5 11t-107.5 35.5t-102.5 62t-86.5 91t-59.5 123.5t-22.5 158zM174 1346l110 243l482 -280l-70 -150z" />
<glyph unicode="&#xfa;" horiz-adv-x="1426" d="M106 481v600h260v-600q0 -51 17.5 -91.5t47.5 -69.5t70.5 -44.5t87.5 -15.5h455v821h260v-950q0 -28 -10 -52t-27.5 -41.5t-41 -27.5t-50.5 -10h-588q-48 0 -102.5 11t-107.5 35.5t-102.5 62t-86.5 91t-59.5 123.5t-22.5 158zM645 1309l481 280l110 -243l-522 -187z" />
<glyph unicode="&#xfb;" horiz-adv-x="1426" d="M106 481v600h260v-600q0 -51 17.5 -91.5t47.5 -69.5t70.5 -44.5t87.5 -15.5h455v821h260v-950q0 -28 -10 -52t-27.5 -41.5t-41 -27.5t-50.5 -10h-588q-48 0 -102.5 11t-107.5 35.5t-102.5 62t-86.5 91t-59.5 123.5t-22.5 158zM235 1388l469 266l469 -266l-121 -168 l-348 180l-348 -180z" />
<glyph unicode="&#xfc;" horiz-adv-x="1426" d="M106 481v600h260v-600q0 -51 17.5 -91.5t47.5 -69.5t70.5 -44.5t87.5 -15.5h455v821h260v-950q0 -28 -10 -52t-27.5 -41.5t-41 -27.5t-50.5 -10h-588q-48 0 -102.5 11t-107.5 35.5t-102.5 62t-86.5 91t-59.5 123.5t-22.5 158zM343 1376q0 26 10 49.5t27.5 41t41 28 t50.5 10.5q26 0 49.5 -10.5t41 -28t28 -41t10.5 -49.5q0 -27 -10.5 -50.5t-28 -41t-41 -27.5t-49.5 -10q-27 0 -50.5 10t-41 27.5t-27.5 41t-10 50.5zM806 1376q0 26 10 49.5t27.5 41t41 28t50.5 10.5q26 0 49.5 -10.5t41 -28t28 -41t10.5 -49.5q0 -27 -10.5 -50.5t-28 -41 t-41 -27.5t-49.5 -10q-27 0 -50.5 10t-41 27.5t-27.5 41t-10 50.5z" />
<glyph unicode="&#xfd;" horiz-adv-x="1440" d="M116 365v716h260v-716q0 -51 27 -78t80 -27h467v-260h-469q-56 0 -119.5 19t-118.5 62.5t-91 113t-36 170.5zM481 -209h469q52 0 78 27t26 78v1185h260v-1185q0 -67 -17 -120.5t-45 -94t-65 -69t-77.5 -46.5t-81.5 -26.5t-78 -8.5h-469v260zM657 1228l481 280l110 -243 l-522 -187z" />
<glyph unicode="&#xfe;" horiz-adv-x="1424" d="M126 -338v1876h260v-473q26 8 53 12t52 4h469q67 0 120 -17t93.5 -45t69 -65t46.5 -77.5t26.5 -81.5t8.5 -78v-352q0 -67 -17 -120.5t-45 -94t-65 -69t-77.5 -46.5t-81.5 -26.5t-78 -8.5h-469v260h469q52 0 78 27t26 78v350q0 54 -26.5 80t-77.5 26h-467q-104 0 -107 -94 v-1065h-260z" />
<glyph unicode="&#xff;" horiz-adv-x="1440" d="M116 365v716h260v-716q0 -51 27 -78t80 -27h467v-260h-469q-56 0 -119.5 19t-118.5 62.5t-91 113t-36 170.5zM353 1376q0 26 10 49.5t27.5 41t41 28t50.5 10.5q26 0 49.5 -10.5t41 -28t28 -41t10.5 -49.5q0 -27 -10.5 -50.5t-28 -41t-41 -27.5t-49.5 -10q-27 0 -50.5 10 t-41 27.5t-27.5 41t-10 50.5zM481 -209h469q52 0 78 27t26 78v1185h260v-1185q0 -67 -17 -120.5t-45 -94t-65 -69t-77.5 -46.5t-81.5 -26.5t-78 -8.5h-469v260zM816 1376q0 26 10 49.5t27.5 41t41 28t50.5 10.5q26 0 49.5 -10.5t41 -28t28 -41t10.5 -49.5q0 -27 -10.5 -50.5 t-28 -41t-41 -27.5t-49.5 -10q-27 0 -50.5 10t-41 27.5t-27.5 41t-10 50.5z" />
<glyph unicode="&#x152;" horiz-adv-x="2796" d="M106 580v274q0 130 45.5 240.5t125.5 190t190 124.5t239 45h352q99 0 186.5 -26.5t159.5 -75.5q16 37 48 59.5t75 22.5h1172v-260h-1043v-809q0 -51 27 -78t80 -27h936v-260h-938q-35 0 -74 7.5t-77.5 23t-74.5 41t-65 61.5q-79 -72 -183.5 -112.5t-228.5 -40.5h-352 q-129 0 -239 44.5t-190 124.5t-125.5 190t-45.5 241zM366 580q0 -77 24.5 -139.5t69.5 -107t107.5 -69t138.5 -24.5h350q76 0 138.5 24.5t107.5 69t69.5 107t24.5 139.5v274q0 77 -24.5 139.5t-69 107t-107 69t-137.5 24.5h-352q-76 0 -138.5 -24.5t-107.5 -69t-69.5 -107 t-24.5 -139.5v-274zM1761 586v262h821v-262h-821z" />
<glyph unicode="&#x153;" horiz-adv-x="2284" d="M100 365v352q0 100 36.5 169.5t91 113t118.5 62.5t118 19h469q79 0 137.5 -23t102.5 -61q43 38 101 61t136 23h469q54 0 117 -19t116.5 -61.5t89.5 -111t36 -166.5q0 -36 -8.5 -76.5t-26.5 -80t-46.5 -76t-68 -64.5t-91.5 -44.5t-118 -16.5h-469v247h469q53 0 82 32.5 t29 80.5q0 51 -32 80t-79 29h-469q-52 0 -81 -32.5t-29 -80.5v-363q0 -52 32 -81t80 -29h467v-248h-469q-55 0 -118 19.5t-119 64.5q-27 -22 -57.5 -38t-62 -26t-62 -15t-58.5 -5h-469q-54 0 -118 19t-118.5 62.5t-91 113t-36.5 170.5zM360 365q0 -51 27 -78t79 -27h467 q53 0 79 27t26 78v350q0 54 -27 80t-78 26h-467q-52 0 -79 -26.5t-27 -77.5v-352z" />
<glyph unicode="&#x178;" horiz-adv-x="1600" d="M83 954v480h260v-480q0 -51 16 -91.5t45 -69.5t70.5 -44.5t92.5 -15.5h469q37 6 76 15.5t71 32.5t53 64t21 109v480h260v-480q0 -89 -22.5 -159t-59.5 -123.5t-86.5 -91.5t-102.5 -62.5t-107.5 -35.5t-102.5 -11h-105v-471h-262v471h-104q-48 0 -102.5 11t-108 35.5 t-102.5 62.5t-86.5 91.5t-60 124t-22.5 158.5zM439 1725q0 26 10 49.5t27.5 41t41 28t50.5 10.5q26 0 49.5 -10.5t41 -28t28 -41t10.5 -49.5q0 -27 -10.5 -50.5t-28 -41t-41 -27.5t-49.5 -10q-27 0 -50.5 10t-41 27.5t-27.5 41t-10 50.5zM902 1725q0 26 10 49.5t27.5 41 t41 28t50.5 10.5q26 0 49.5 -10.5t41 -28t28 -41t10.5 -49.5q0 -27 -10.5 -50.5t-28 -41t-41 -27.5t-49.5 -10q-27 0 -50.5 10t-41 27.5t-27.5 41t-10 50.5z" />
<glyph unicode="&#x2c6;" horiz-adv-x="1141" d="M102 1327l469 266l469 -266l-121 -168l-348 180l-348 -180z" />
<glyph unicode="&#x2dc;" horiz-adv-x="1141" d="M177 1167q0 85 20.5 149.5t55 108t80 65t96.5 21.5q47 0 81.5 -19t64.5 -41.5t58.5 -41t64.5 -18.5q30 0 47.5 15t26.5 34.5t12 39.5t4 31h176q0 -96 -20 -162t-54 -106.5t-79.5 -58t-96.5 -17.5q-54 0 -91 19t-66 41.5t-55 41.5t-58 19q-30 0 -47.5 -15t-26.5 -35.5 t-12 -40.5t-4 -30h-177z" />
<glyph unicode="&#x2000;" horiz-adv-x="1001" />
<glyph unicode="&#x2001;" horiz-adv-x="2003" />
<glyph unicode="&#x2002;" horiz-adv-x="1001" />
<glyph unicode="&#x2003;" horiz-adv-x="2003" />
<glyph unicode="&#x2004;" horiz-adv-x="667" />
<glyph unicode="&#x2005;" horiz-adv-x="500" />
<glyph unicode="&#x2006;" horiz-adv-x="333" />
<glyph unicode="&#x2007;" horiz-adv-x="333" />
<glyph unicode="&#x2008;" horiz-adv-x="250" />
<glyph unicode="&#x2009;" horiz-adv-x="400" />
<glyph unicode="&#x200a;" horiz-adv-x="111" />
<glyph unicode="&#x2010;" horiz-adv-x="1170" d="M116 600v234h938v-234h-938z" />
<glyph unicode="&#x2011;" horiz-adv-x="1170" d="M116 600v234h938v-234h-938z" />
<glyph unicode="&#x2012;" horiz-adv-x="1170" d="M116 600v234h938v-234h-938z" />
<glyph unicode="&#x2013;" horiz-adv-x="1051" d="M116 600v234h819v-234h-819z" />
<glyph unicode="&#x2014;" horiz-adv-x="1870" d="M116 600v234h1638v-234h-1638z" />
<glyph unicode="&#x2018;" horiz-adv-x="476" d="M65 870l155 504h183l-92 -504h-246z" />
<glyph unicode="&#x2019;" horiz-adv-x="472" d="M79 870l92 504h246l-156 -504h-182z" />
<glyph unicode="&#x201a;" horiz-adv-x="461" d="M46 -184l93 503h245l-155 -503h-183z" />
<glyph unicode="&#x201c;" horiz-adv-x="844" d="M65 870l155 504h183l-92 -504h-246zM433 870l156 504h182l-92 -504h-246z" />
<glyph unicode="&#x201d;" horiz-adv-x="840" d="M79 870l92 504h246l-156 -504h-182zM448 870l92 504h246l-156 -504h-182z" />
<glyph unicode="&#x201e;" horiz-adv-x="830" d="M46 -184l93 503h245l-155 -503h-183zM415 -184l92 503h246l-156 -503h-182z" />
<glyph unicode="&#x2022;" horiz-adv-x="683" d="M141 729q0 40 15.5 76t42.5 63.5t63.5 43.5t78.5 16q41 0 77.5 -16t64 -43.5t43.5 -63.5t16 -76q0 -42 -16 -79t-43.5 -64t-64 -42.5t-77.5 -15.5q-42 0 -78.5 15.5t-63.5 42.5t-42.5 64t-15.5 79z" />
<glyph unicode="&#x2026;" horiz-adv-x="1141" d="M81 131q0 26 10 49.5t27.5 41t41 28t50.5 10.5q26 0 49.5 -10.5t41 -28t28 -41t10.5 -49.5q0 -27 -10.5 -50.5t-28 -41t-41 -27.5t-49.5 -10q-27 0 -50.5 10t-41 27.5t-27.5 41t-10 50.5zM442 131q0 26 10 49.5t27.5 41t41 28t50.5 10.5q26 0 49.5 -10.5t41 -28t28 -41 t10.5 -49.5q0 -27 -10.5 -50.5t-28 -41t-41 -27.5t-49.5 -10q-27 0 -50.5 10t-41 27.5t-27.5 41t-10 50.5zM802 131q0 26 10 49.5t27.5 41t41 28t50.5 10.5q26 0 49.5 -10.5t41 -28t28 -41t10.5 -49.5q0 -27 -10.5 -50.5t-28 -41t-41 -27.5t-49.5 -10q-27 0 -50.5 10 t-41 27.5t-27.5 41t-10 50.5z" />
<glyph unicode="&#x202f;" horiz-adv-x="400" />
<glyph unicode="&#x2039;" horiz-adv-x="894" d="M65 535q0 24 10 47.5t29 40.5l368 329h332l-465 -417l463 -404h-336l-360 315q-41 35 -41 89z" />
<glyph unicode="&#x203a;" horiz-adv-x="894" d="M89 952h332l369 -329q18 -17 28.5 -40.5t10.5 -47.5q0 -53 -41 -89l-361 -315h-336l463 404z" />
<glyph unicode="&#x205f;" horiz-adv-x="500" />
<glyph unicode="&#x20ac;" horiz-adv-x="1854" d="M104 418v233h338v131h-338v234h338v53q0 36 8.5 77.5t27 82t47 77.5t69.5 65.5t94 45.5t120 17h938v-260h-938q-51 0 -77.5 -27t-26.5 -80v-51h338v-234h-338v-131h338v-233h-338v-53q0 -48 29 -76.5t75 -28.5h938v-260h-938q-55 0 -119 19t-119 62.5t-91.5 113 t-36.5 170.5v53h-338z" />
<glyph unicode="&#x2122;" horiz-adv-x="1645" d="M116 1296v140h580v-140h-220v-450h-141v450h-219zM790 846v528q0 25 13 43.5t36 24.5t44.5 -2.5t35.5 -28.5l229 -364l232 364q14 20 35.5 28.5t44.5 2.5t37 -24.5t14 -43.5v-528h-142v293l-159 -269v2q-20 -34 -62 -34q-17 0 -33.5 8.5t-25.5 25.5v-2l-162 269v-293 h-137z" />
<glyph unicode="&#x25fc;" horiz-adv-x="1080" d="M0 0v1080h1080v-1080h-1080z" />
</font>
</defs>
</svg>
